<?xml version="1.0" standalone="no"?>
<!DOCTYPE svg PUBLIC "-//W3C//DTD SVG 1.1//EN" "http://www.w3.org/Graphics/SVG/1.1/DTD/svg11.dtd" >
<svg xmlns="http://www.w3.org/2000/svg">
<metadata></metadata>
<defs>
<font id="colaborate-thinregular" horiz-adv-x="460" >
<font-face units-per-em="1000" ascent="800" descent="-200" />
<missing-glyph horiz-adv-x="230" />
<glyph horiz-adv-x="1000" />
<glyph horiz-adv-x="1000" />
<glyph unicode="&#xd;" horiz-adv-x="1000" />
<glyph unicode=" "  horiz-adv-x="230" />
<glyph unicode="&#x09;" horiz-adv-x="230" />
<glyph unicode="&#xa0;" horiz-adv-x="230" />
<glyph unicode="!" horiz-adv-x="230" d="M86 0v71h59v-71h-59zM94 164v483h42v-483h-42z" />
<glyph unicode="&#x22;" horiz-adv-x="340" d="M80 647h49l-8 -217h-33zM211 647h49l-8 -217h-33z" />
<glyph unicode="#" d="M11 201v39h93l28 159h-82v39h89l37 209h44l-37 -209h126l37 209h44l-37 -209h96v-39h-103l-28 -159h92v-39h-99l-35 -201h-44l35 201h-126l-35 -201h-44l35 201h-86zM148 240h126l28 159h-126z" />
<glyph unicode="$" d="M47 12l18 42q33 -13 49 -18t41 -10t52 -5v298q-38 14 -60 25t-48.5 31t-39 49t-12.5 68q0 76 43 116t117 47v91h44v-89q67 -2 136 -25l-18 -42q-3 1 -11.5 5t-11.5 5t-10.5 4t-11.5 4.5t-12 3.5t-13.5 3t-13.5 2.5t-16.5 2t-17.5 0.5v-265q37 -14 60.5 -26t49.5 -33.5 t39 -53t13 -74.5q0 -82 -44.5 -126t-117.5 -55v-85h-44v82q-59 0 -160 28zM95 492q0 -46 28.5 -72.5t83.5 -47.5v246q-112 -16 -112 -126zM251 27q49 11 81.5 45t32.5 94q0 54 -29.5 84t-84.5 52v-275z" />
<glyph unicode="%" horiz-adv-x="690" d="M59 486q0 171 117 171q39 0 64.5 -14.5t36 -42.5t14 -52.5t3.5 -61.5q0 -29 -1.5 -49.5t-8.5 -46.5t-19 -42t-35 -27.5t-55 -11.5q-39 0 -64 15.5t-35.5 45t-13.5 54.5t-3 62zM93 486q0 -32 2.5 -54.5t10 -47t25 -37t44.5 -12.5q29 0 47.5 12t26 36.5t10 46.5t2.5 56 t-2 54t-9.5 44t-26 35.5t-47.5 11.5q-83 0 -83 -145zM139 0l362 629h46l-362 -629h-46zM396 167q0 171 117 171q39 0 64.5 -14.5t36 -42.5t14 -52.5t3.5 -61.5q0 -29 -1.5 -49.5t-8.5 -46.5t-19 -42t-35 -27.5t-55 -11.5q-39 0 -64 15.5t-35.5 45t-13.5 54.5t-3 62zM430 167 q0 -32 2.5 -54.5t10 -47t25 -37t44.5 -12.5q29 0 47.5 12t26 36.5t10 46.5t2.5 56t-2 54t-9.5 44t-26 35.5t-47.5 11.5q-83 0 -83 -145z" />
<glyph unicode="&#x26;" d="M46 169q0 130 124 188q-4 3 -24 17t-29.5 22.5t-23.5 24t-20.5 34t-6.5 40.5q0 165 147 165t147 -153q0 -59 -31 -95t-108 -69q-65 -28 -98 -64t-33 -108q0 -59 37.5 -105t113.5 -46q35 0 70 24.5t54 59.5v144h-111v33h152v-141q0 -24 8 -140h-33l-12 58 q-47 -71 -128 -71q-88 0 -141.5 48t-53.5 134zM111 496q0 -15 5.5 -30t11.5 -25t18.5 -22t19.5 -17t21.5 -15.5t17.5 -12.5q49 20 80 50.5t31 83.5q0 59 -24 89t-82 30q-99 0 -99 -131z" />
<glyph unicode="'" horiz-adv-x="230" d="M91 647h49l-8 -217h-33z" />
<glyph unicode="(" horiz-adv-x="255" d="M59 254q0 130 22.5 211t78.5 182h38q-53 -97 -72 -181t-19 -212q0 -112 19 -194.5t77 -187.5h-38q-63 109 -84.5 188.5t-21.5 193.5z" />
<glyph unicode=")" horiz-adv-x="255" d="M52 -128q58 105 77 187.5t19 194.5q0 128 -19 212t-72 181h38q56 -101 78.5 -182t22.5 -211q0 -114 -21.5 -193.5t-84.5 -188.5h-38z" />
<glyph unicode="*" horiz-adv-x="370" d="M15 506l16 47l133 -51l5 4l-7 141h48l-8 -143l5 -3l132 51l16 -47l-139 -34l-1 -5l90 -115l-38 -27l-78 120h-6l-79 -120l-39 28l91 114l-2 5z" />
<glyph unicode="+" d="M27 191v40h180v190h46v-190h180v-40h-180v-191h-46v191h-180z" />
<glyph unicode="," horiz-adv-x="230" d="M28 -103l60 178h55l-81 -178h-34z" />
<glyph unicode="-" horiz-adv-x="315" d="M30 232v40h255v-40h-255z" />
<glyph unicode="." horiz-adv-x="230" d="M87 0v69h56v-69h-56z" />
<glyph unicode="/" horiz-adv-x="230" d="M-14 -10l214 668h44l-214 -668h-44z" />
<glyph unicode="0" d="M37 308q0 47 3.5 85t15.5 82t32 73.5t56 49.5t85 20q53 0 90.5 -19.5t57 -46.5t30.5 -72.5t13.5 -82t2.5 -89.5q0 -44 -2 -75t-7.5 -72.5t-18.5 -69t-34 -53.5t-54.5 -39t-78.5 -13q-38 0 -68 11t-50 27.5t-34 44t-21.5 52.5t-11.5 61.5t-5 62.5t-1 63zM85 308 q0 -41 1.5 -70.5t6 -65.5t14.5 -60.5t25 -46t39.5 -32.5t56.5 -11q35 0 61.5 11t42 34.5t25 46t13 62t4.5 64t1 68.5q0 50 -2 83t-10 72.5t-23 63t-43 39.5t-68 16q-144 0 -144 -274z" />
<glyph unicode="1" d="M111 487l138 120h42v-608h-46v548l-116 -102z" />
<glyph unicode="2" d="M33 40q18 19 65.5 64t84 83t76.5 84.5t62.5 91.5t22.5 82q0 71 -34 104.5t-104 33.5q-9 0 -17.5 -0.5t-17.5 -2.5t-15.5 -3t-16.5 -4.5t-14 -5t-15.5 -6.5t-15 -6.5t-16.5 -8t-16 -7.5l-18 42q81 38 164 38q86 0 135 -42t49 -128q0 -43 -21 -89.5t-60 -93.5t-73 -82 t-82.5 -81t-66.5 -64h317v-39h-355z" />
<glyph unicode="3" d="M33 9l18 42q8 -3 25 -9t24.5 -8.5t22 -6t29.5 -4.5t34 -1q40 0 71.5 10.5t55 41.5t23.5 79q0 85 -50.5 117t-141.5 32v34q83 0 130 28t47 101q0 67 -33.5 92.5t-91.5 25.5q-46 0 -134 -43l-18 42q74 37 152 37q80 0 126.5 -37.5t46.5 -114.5q0 -68 -37 -104t-95 -43 q62 -10 104.5 -49.5t42.5 -118.5q0 -87 -56.5 -126.5t-144.5 -39.5q-52 0 -79.5 4t-70.5 19z" />
<glyph unicode="4" d="M38 213l268 394h38v-399h96v-37h-96v-171h-46v171h-242zM76 208h222v328z" />
<glyph unicode="5" d="M57 7l18 42q67 -27 136 -27q73 0 113.5 43.5t40.5 124.5q0 75 -34.5 117t-94.5 42q-49 0 -125 -38l-42 18v278h317v-36h-271v-211q10 2 31 9t42.5 11.5t46.5 4.5q88 0 132 -53t44 -144q0 -96 -52.5 -149t-148.5 -53q-89 0 -153 21z" />
<glyph unicode="6" d="M45 283q0 84 23.5 158.5t77 126t127.5 51.5q56 0 116 -16l-18 -42q-61 22 -93 22q-85 0 -138 -82.5t-53 -219.5q23 50 61.5 82t89.5 32q85 0 131.5 -54.5t46.5 -144.5q0 -86 -48 -148t-130 -62q-58 0 -98 24.5t-60 69.5t-27.5 93t-7.5 110zM96 246q0 -122 34.5 -173 t108.5 -51q59 0 94 48t35 126q0 163 -128 163q-31 0 -57.5 -12t-43.5 -31.5t-26.5 -36t-16.5 -33.5z" />
<glyph unicode="7" d="M39 569v38h342l18 -42l-234 -565h-54l247 569h-319z" />
<glyph unicode="8" d="M36 145q0 125 147 175q-1 0 -12.5 6t-18.5 9t-20 11.5t-22 16t-20 19t-17.5 23.5t-11 28t-4.5 33q0 76 47.5 114.5t127.5 38.5q177 0 177 -152q0 -33 -15.5 -61t-38.5 -45.5t-43.5 -27.5t-36.5 -14q149 -51 149 -174q0 -49 -19 -82.5t-51 -49t-62 -21.5t-65 -6 q-33 0 -63 6.5t-60.5 23t-49 49.5t-18.5 80zM82 145q0 -62 40 -93t105 -31q66 0 108.5 30t42.5 94q0 111 -148 156q-148 -42 -148 -156zM102 466q0 -47 40.5 -82t85.5 -48q47 9 91.5 46t44.5 85q0 117 -132 117q-130 0 -130 -118z" />
<glyph unicode="9" d="M44 409q0 86 48 148t130 62q58 0 98 -24.5t60 -69.5t27.5 -93t7.5 -110q0 -84 -23.5 -158.5t-77 -126t-127.5 -51.5q-56 0 -116 16l18 42q61 -22 93 -22q85 0 138 82.5t53 219.5q-23 -50 -61.5 -82t-89.5 -32q-85 0 -131.5 54.5t-46.5 144.5zM92 409q0 -163 128 -163 q31 0 57.5 12t43.5 31.5t26.5 36t16.5 33.5q0 122 -34.5 173t-108.5 51q-59 0 -94 -48t-35 -126z" />
<glyph unicode=":" horiz-adv-x="230" d="M87 0v69h56v-69h-56zM87 383v69h56v-69h-56z" />
<glyph unicode=";" horiz-adv-x="230" d="M28 -103l55 178h60l-81 -178h-34zM83 383v69h56v-69h-56z" />
<glyph unicode="&#x3c;" d="M30 191v58l400 179v-49l-357 -160l357 -158v-49z" />
<glyph unicode="=" d="M30 112v43h400v-43h-400zM30 284v44h400v-44h-400z" />
<glyph unicode="&#x3e;" d="M30 12v49l357 160l-357 158v49l400 -179v-58z" />
<glyph unicode="?" horiz-adv-x="385" d="M51 627q86 30 136 30q167 0 167 -147q0 -33 -16.5 -61t-40 -48t-47 -40.5t-40 -47t-16.5 -57.5v-98h-46v103q0 38 16.5 68t40 50t47 38.5t40 41.5t16.5 51q0 59 -29.5 84.5t-91.5 25.5q-48 0 -118 -35zM142 0v71h59v-71h-59z" />
<glyph unicode="@" horiz-adv-x="810" d="M83 320q0 156 98 246.5t253 90.5q77 0 142.5 -30t108 -94t42.5 -151q0 -126 -77.5 -191.5t-205.5 -65.5q-86 0 -143.5 51t-57.5 143q0 80 53 136.5t134 56.5q37 0 74 -15v-214l42 7l15 -36l-94 -15v235q-15 5 -36 5q-66 0 -105 -42.5t-39 -114.5q0 -80 42.5 -122 t116.5 -42q110 0 173.5 55.5t63.5 167.5q0 119 -71 181t-178 62q-138 0 -222.5 -79t-84.5 -225q0 -147 83 -225t220 -78q63 0 107.5 8t104.5 30l15 -36q-92 -35 -230 -35q-160 0 -252 90t-92 246z" />
<glyph unicode="A" horiz-adv-x="608" d="M35 0l263 647h31l244 -647h-52l-75 203h-284l-80 -203h-47zM176 238h258l-123 341z" />
<glyph unicode="B" horiz-adv-x="557" d="M100 0v647h149q53 0 89.5 -6.5t67.5 -23.5t46 -50.5t15 -84.5q0 -49 -28 -86.5t-75 -56.5q133 -32 133 -158q0 -54 -16 -90.5t-47 -55.5t-67 -27t-85 -8h-182zM146 37h130q87 0 129.5 28.5t42.5 115.5q0 79 -48 106.5t-135 27.5h-119v-278zM146 351h117q69 0 112.5 31.5 t43.5 98.5q0 80 -38.5 104.5t-131.5 24.5h-103v-259z" />
<glyph unicode="C" horiz-adv-x="527" d="M65 323q0 56 8 104t26.5 91t48 73.5t75 48t104.5 17.5q81 0 151 -23l-18 -42q-65 28 -133 28q-214 0 -214 -296q0 -63 10 -115t33 -95.5t65 -68t100 -24.5q64 0 146 33l18 -42q-80 -28 -164 -28q-91 0 -149.5 45.5t-82.5 119t-24 174.5z" />
<glyph unicode="D" horiz-adv-x="605" d="M100 0v647h131q172 0 240.5 -72.5t68.5 -248.5q0 -175 -71.5 -250.5t-237.5 -75.5h-131zM146 37h94q131 0 191.5 72.5t60.5 215.5q0 155 -56 220t-205 65h-85v-573z" />
<glyph unicode="E" horiz-adv-x="513" d="M100 0v647h344v-37h-298v-257h277v-37h-277v-279h307v-37h-353z" />
<glyph unicode="F" horiz-adv-x="502" d="M100 0v647h344v-38h-298v-260h286v-36h-286v-313h-46z" />
<glyph unicode="G" horiz-adv-x="576" d="M65 324q0 333 267 333q55 0 143 -23l-18 -42q-64 28 -124 28q-115 0 -167.5 -75t-52.5 -221q0 -303 213 -303q55 0 143 47v201h-143v37h185v-267q-42 -20 -64.5 -29.5t-56 -17.5t-67.5 -8q-258 0 -258 340z" />
<glyph unicode="H" horiz-adv-x="624" d="M100 0v647h46v-294h332v294h46v-647h-46v315h-332v-315h-46z" />
<glyph unicode="I" horiz-adv-x="222" d="M88 0v647h46v-647h-46z" />
<glyph unicode="J" horiz-adv-x="375" d="M20 0q7 1 27.5 5t29.5 6t27.5 7t28 9.5t25 12.5t24 17.5t19 23t15.5 29.5t9 37.5t4 46.5v453h46v-443q0 -41 -8.5 -74.5t-19 -56.5t-32 -42t-37 -29t-44.5 -20t-43 -13.5t-44 -9.5q-9 -2 -14 -3z" />
<glyph unicode="K" horiz-adv-x="553" d="M100 0v647h46v-305l311 305h49l-316 -308l346 -339h-62l-328 321v-321h-46z" />
<glyph unicode="L" horiz-adv-x="464" d="M100 0v647h46v-607h309v-40h-355z" />
<glyph unicode="M" horiz-adv-x="793" d="M100 0v647h63l236 -579l236 579h58v-647h-44v597l-240 -597h-25l-244 597v-597h-40z" />
<glyph unicode="N" horiz-adv-x="647" d="M100 0v647h62l341 -593v593h44v-647h-64l-343 593v-593h-40z" />
<glyph unicode="O" horiz-adv-x="657" d="M65 321q0 155 63 245.5t203 90.5q74 0 126 -25t81 -72t41.5 -105t12.5 -134q0 -156 -62 -246.5t-200 -90.5q-144 0 -204.5 89.5t-60.5 247.5zM113 321q0 -140 48.5 -220t168.5 -80q62 0 105.5 22.5t66.5 65t32.5 94t9.5 118.5q0 143 -47 221t-167 78q-63 0 -106.5 -22 t-67 -64t-33.5 -93.5t-10 -119.5z" />
<glyph unicode="P" horiz-adv-x="532" d="M100 0v647h167q103 0 156 -42.5t53 -136.5q0 -185 -198 -185h-132v-283h-46zM146 320h124q83 0 120.5 32t37.5 116q0 80 -40 111t-123 31h-119v-290z" />
<glyph unicode="Q" horiz-adv-x="657" d="M65 321q0 155 63 245.5t203 90.5q74 0 126 -25t81 -72t41.5 -105t12.5 -134q0 -156 -62 -246.5t-200 -90.5q-144 0 -204.5 89.5t-60.5 247.5zM113 321q0 -140 48.5 -220t168.5 -80q62 0 105.5 22.5t66.5 65t32.5 94t9.5 118.5q0 143 -47 221t-167 78q-63 0 -106.5 -22 t-67 -64t-33.5 -93.5t-10 -119.5zM314 -67l18 30l206 -17l-18 -43z" />
<glyph unicode="R" horiz-adv-x="558" d="M100 0v647h182q87 0 143 -39.5t56 -127.5q0 -180 -194 -180l225 -300h-56l-222 299h-88v-299h-46zM146 336h142q145 0 145 144q0 130 -146 130h-141v-274z" />
<glyph unicode="S" horiz-adv-x="526" d="M70 12l18 42q88 -33 147 -33q69 0 119.5 32.5t50.5 109.5q0 27 -9.5 49.5t-22.5 37t-37.5 28.5t-43 21t-49.5 18q-32 11 -52 19.5t-45.5 23.5t-40 32t-25 43.5t-10.5 58.5q0 84 58.5 123.5t154.5 39.5q68 0 150 -28l-18 -42q-76 33 -138 33q-159 0 -159 -126 q0 -28 11 -49t33.5 -36.5t43.5 -24.5t55 -21q45 -16 70.5 -27.5t58 -34t48 -56.5t15.5 -80q0 -181 -219 -181q-61 0 -164 28z" />
<glyph unicode="T" horiz-adv-x="498" d="M28 609v38h442v-38h-198v-609h-46v609h-198z" />
<glyph unicode="U" horiz-adv-x="655" d="M100 239v408h46v-398q0 -130 41.5 -179t146.5 -49q96 0 135.5 51.5t39.5 176.5v398h46v-410q0 -130 -53 -191.5t-168 -61.5q-126 0 -180 61t-54 194z" />
<glyph unicode="V" horiz-adv-x="580" d="M31 647h51l215 -577l204 577h48l-235 -647h-38z" />
<glyph unicode="W" horiz-adv-x="834" d="M37 647h48l153 -579l158 552h48l156 -554l154 581h43l-176 -647h-48l-156 546l-158 -546h-50z" />
<glyph unicode="X" horiz-adv-x="551" d="M33 0l216 334l-189 313h54l164 -273l171 273h50l-199 -306l212 -341h-58l-180 301l-191 -301h-50z" />
<glyph unicode="Y" horiz-adv-x="532" d="M17 647h52l205 -315l195 315h46l-220 -356v-291h-46v287z" />
<glyph unicode="Z" horiz-adv-x="527" d="M46 42l385 567h-348v38h380l18 -42l-386 -567h378v-38h-409z" />
<glyph unicode="[" horiz-adv-x="255" d="M84 -127v803h125v-34h-79v-732h79v-37h-125z" />
<glyph unicode="\" horiz-adv-x="230" d="M-14 658h44l214 -668h-44z" />
<glyph unicode="]" horiz-adv-x="255" d="M46 -88h79v732h-79v34h125v-803h-125v37z" />
<glyph unicode="^" d="M37 269l181 378h23l185 -378h-51l-145 302l-146 -302h-47z" />
<glyph unicode="_" horiz-adv-x="500" d="M-1 -62h502v-33h-502v33z" />
<glyph unicode="`" horiz-adv-x="188" d="M19 647h54l96 -117h-39z" />
<glyph unicode="a" horiz-adv-x="457" d="M49 120q0 76 52.5 114.5t189.5 38.5h47v42q0 119 -105 119q-69 0 -149 -39l-15 36q93 36 163 36q69 0 108 -37t39 -110v-180q0 -24 12 -140h-33q0 5 -7.5 27.5t-8.5 30.5q-18 -30 -53 -49t-80 -19q-66 0 -113 32.5t-47 97.5zM93 121q0 -45 30 -71.5t86 -26.5 q44 0 78.5 20t51.5 53v143h-34q-119 0 -165.5 -27t-46.5 -91z" />
<glyph unicode="b" horiz-adv-x="471" d="M64 0q8 77 8 140v517h41v-272q17 31 54 56.5t83 25.5q88 0 130 -66t42 -170q0 -107 -42.5 -174t-134.5 -67q-40 0 -77.5 20t-57.5 48l-13 -58h-33zM111 99q47 -76 124 -76q143 0 143 206q0 104 -35 154.5t-96 50.5q-31 0 -56.5 -12t-41.5 -31.5t-24.5 -33t-13.5 -26.5 v-232z" />
<glyph unicode="c" horiz-adv-x="415" d="M49 225q0 242 193 242q57 0 131 -29l-15 -36q-64 32 -117 32q-148 0 -148 -209q0 -202 147 -202q58 0 120 32l15 -36q-25 -12 -66.5 -20.5t-69.5 -8.5q-97 0 -143.5 62.5t-46.5 172.5z" />
<glyph unicode="d" horiz-adv-x="471" d="M49 231q0 102 46 169t129 67q48 0 82 -25t52 -57v272h41v-517q0 -63 8 -140h-33l-13 58q-20 -28 -56.5 -48t-76.5 -20h-2q-92 1 -134.5 67.5t-42.5 173.5zM93 229q0 -206 143 -206q77 0 124 76v232q-5 14 -13.5 28t-23.5 33t-40 30.5t-55 11.5q-63 0 -99 -51.5 t-36 -153.5z" />
<glyph unicode="e" horiz-adv-x="461" d="M49 224q0 43 9 83t28.5 77.5t56 60t86.5 22.5q54 0 90.5 -19t55.5 -55t26.5 -77.5t7.5 -96.5h-315q0 -196 145 -196q64 0 141 41l12 -37q-77 -37 -161 -37q-94 0 -138 65t-44 169zM93 252h276q0 92 -33 137t-107 45q-64 0 -97.5 -48t-38.5 -134z" />
<glyph unicode="f" horiz-adv-x="235" d="M15 424v33h76v64q0 68 39 106.5t115 44.5l10 -36q-73 -7 -98 -34.5t-25 -77.5v-67h94v-33h-94v-424h-41v424h-76z" />
<glyph unicode="g" horiz-adv-x="471" d="M39 -72q0 39 31.5 65.5t68.5 34.5q-64 26 -64 72q0 15 7 29.5t13 21t20 20.5q-1 1 -6 6.5t-7 8t-7.5 9t-8 12t-7 13.5t-7 16t-5.5 18t-4 22t-1 24q0 23 7.5 49t25 54t53.5 46t85 18q50 0 76 -13q122 10 125 10l-15 -36h-70q23 -16 40.5 -50.5t17.5 -74.5 q0 -74 -41.5 -124t-130.5 -50q-22 0 -52 7.5t-42 15.5q-26 -28 -26 -49q0 -23 26.5 -35.5t109.5 -21.5q105 -11 146.5 -40.5t41.5 -73.5q0 -62 -56 -95.5t-142 -33.5q-202 0 -202 125zM83 -72q0 -92 158 -92q77 0 115.5 26t38.5 70q0 28 -24.5 44.5t-67.5 24.5t-125 15 q-45 -9 -70 -34.5t-25 -53.5zM106 298q0 -60 32 -98t98 -38t96.5 38.5t30.5 100.5q0 64 -33.5 98.5t-94.5 34.5q-68 0 -98.5 -40t-30.5 -96z" />
<glyph unicode="h" horiz-adv-x="469" d="M72 0v657h41v-272q17 33 54.5 57.5t80.5 24.5q81 0 115 -48t34 -123v-296h-41v274q0 79 -24 119.5t-91 40.5q-48 0 -84 -35t-45 -68v-331h-40z" />
<glyph unicode="i" horiz-adv-x="188" d="M70 579v68h48v-68h-48zM74 0v457h41v-457h-41z" />
<glyph unicode="j" horiz-adv-x="183" d="M-24 -103q52 11 72.5 33t20.5 67v460h41v-451q0 -60 -28 -94.5t-94 -51.5zM65 579v68h48v-68h-48z" />
<glyph unicode="k" horiz-adv-x="418" d="M72 0v657h41v-392l216 192h47l-228 -198l252 -259h-52l-235 244v-244h-41z" />
<glyph unicode="l" horiz-adv-x="185" d="M72 0v657h41v-657h-41z" />
<glyph unicode="m" horiz-adv-x="750" d="M64 457h33l14 -72q56 82 133 82q106 0 137 -101q17 28 32 46.5t45 36.5t65 18q155 0 155 -175v-292h-41v290q0 30 -4 52t-15.5 44.5t-36.5 35t-62 12.5q-42 0 -76.5 -33.5t-49.5 -73.5v-327h-41v290q0 67 -29 105.5t-85 38.5q-42 0 -77 -31.5t-48 -70.5v-332h-41v352 q0 14 -8 105z" />
<glyph unicode="n" horiz-adv-x="469" d="M64 457h33l13 -72l7 9q7 10 10 13.5t11.5 13t15 14t17.5 12t21.5 11t24.5 6.5t29 3q151 0 151 -179v-288h-41v280q0 35 -4.5 60t-16 47.5t-35.5 34.5t-60 12q-45 0 -79.5 -32.5t-47.5 -69.5v-332h-41v360q0 21 -3.5 51.5t-4.5 45.5z" />
<glyph unicode="o" horiz-adv-x="477" d="M49 231q0 68 16 118t60 84t114 34q189 0 189 -236q0 -241 -189 -241q-190 0 -190 241zM93 231q0 -208 146 -208q83 0 114 55.5t31 152.5q0 45 -6.5 79.5t-22 63.5t-45 44.5t-71.5 15.5q-77 0 -111.5 -55.5t-34.5 -147.5z" />
<glyph unicode="p" horiz-adv-x="471" d="M64 457h33l15 -73q50 83 135 83q93 0 134 -66.5t41 -174.5q0 -102 -44.5 -169t-127.5 -67q-89 0 -137 66v-236h-41v502q0 72 -8 135zM112 97q2 -2 11.5 -14t14.5 -17t17.5 -15t23.5 -15t28.5 -9t36.5 -4q62 0 98 51.5t36 153.5q0 206 -139 206q-44 0 -79.5 -32t-47.5 -71 v-234z" />
<glyph unicode="q" horiz-adv-x="471" d="M49 226q0 105 44 173t133 68q41 0 77 -25t56 -58l15 73h33q-8 -63 -8 -135v-502h-41v236q-48 -66 -137 -66q-84 0 -128 67t-44 169zM93 228q0 -102 36 -153.5t98 -51.5q24 0 43.5 4.5t34.5 15t22 16.5t19 21.5t13 16.5v234q-12 38 -48 70.5t-80 32.5q-69 0 -103.5 -56.5 t-34.5 -149.5z" />
<glyph unicode="r" horiz-adv-x="320" d="M64 457h33l13 -86q10 19 18 31t22.5 29.5t33.5 26.5t41 9q44 0 82 -22l-15 -36q-34 25 -74 25q-14 0 -27.5 -7t-22.5 -15.5t-19 -24t-15 -24t-12.5 -25t-8.5 -18.5v-320h-41v355q0 10 -8 102z" />
<glyph unicode="s" horiz-adv-x="396" d="M44 343q0 64 45.5 94t120.5 30q42 0 129 -30l-15 -36q-5 2 -17.5 7.5t-17 7.5t-14.5 6t-16.5 5.5t-16.5 3.5t-19.5 2.5t-21.5 0.5q-50 0 -81.5 -21t-31.5 -67q0 -18 7.5 -31.5t25 -23.5t31.5 -15.5t41 -13.5q25 -8 32 -10t29.5 -10t30.5 -14t23.5 -17t21.5 -23t11.5 -29 t5.5 -37q0 -63 -43.5 -97.5t-111.5 -34.5q-91 0 -147 28l15 36q45 -19 69.5 -25t66.5 -6q49 0 78 25.5t29 72.5q0 23 -8.5 39.5t-29 28t-35.5 17t-46 15.5q-32 10 -52 18t-43 22t-34 34.5t-11 47.5z" />
<glyph unicode="t" horiz-adv-x="263" d="M15 424v33h69v114h41v-114h104v-33h-104v-314q0 -49 29 -76.5t94 -38.5l-11 -38q-77 14 -115 51.5t-38 101.5v314h-69z" />
<glyph unicode="u" horiz-adv-x="462" d="M72 169v288h41v-280q0 -73 23 -113.5t90 -40.5q45 0 77.5 32t45.5 70v332h41v-360q0 -21 3.5 -51.5t4.5 -45.5h-33l-13 72q-1 -1 -10 -13.5t-14 -18t-17.5 -17t-24.5 -17.5t-31 -11t-40 -5q-143 0 -143 179z" />
<glyph unicode="v" horiz-adv-x="465" d="M42 457h44l150 -396l147 396h40l-175 -457h-29z" />
<glyph unicode="w" horiz-adv-x="668" d="M42 457h43l120 -403l111 357h34l102 -354l135 400h39l-158 -457h-38l-101 343l-107 -343h-40z" />
<glyph unicode="x" horiz-adv-x="428" d="M26 0l164 231l-153 226h53l128 -191l131 191h45l-155 -219l163 -238h-55l-133 203l-142 -203h-46z" />
<glyph unicode="y" horiz-adv-x="464" d="M42 457l44 1l160 -392l136 391h40l-191 -530q-19 -51 -43 -74t-79 -43l-12 38q71 19 88 65l40 106z" />
<glyph unicode="z" horiz-adv-x="392" d="M42 36l264 388h-244v33h273l15 -36l-263 -388h253v-33h-283z" />
<glyph unicode="{" horiz-adv-x="340" d="M48 247v37q35 1 52.5 28t19 66.5t7.5 85.5t17 86t49.5 67.5t102.5 29.5v-37q-63 0 -94.5 -29.5t-37.5 -75t-6.5 -92.5t-15 -89.5t-51.5 -59.5q38 -14 53 -55t16.5 -89t7 -94t36 -76.5t92.5 -30.5v-37q-63 2 -100.5 29t-48.5 66.5t-17 85.5t-8 86t-20 67.5t-54 30.5z" />
<glyph unicode="|" horiz-adv-x="230" d="M95 -166v868h40v-868h-40z" />
<glyph unicode="}" horiz-adv-x="340" d="M44 -81q62 0 92.5 30.5t36 76.5t7 94t16.5 89t53 55q-37 17 -51.5 59.5t-15 89.5t-6.5 92.5t-37.5 75t-94.5 29.5v37q64 -2 102.5 -29.5t49.5 -67.5t17 -86t7.5 -85.5t19 -66.5t52.5 -28v-37q-36 -3 -54 -30.5t-20 -67.5t-8 -86t-17 -85.5t-48.5 -66.5t-100.5 -29v37z " />
<glyph unicode="~" d="M24 175q0 47 30.5 71t75.5 24q35 0 100 -36t97 -36t51 19t19 50l39 -18q0 -46 -32.5 -70.5t-75.5 -24.5q-40 0 -105 36.5t-93 36.5q-67 0 -67 -70z" />
<glyph unicode="&#xa1;" horiz-adv-x="230" d="M86 576v71h59v-71h-59zM95 0v483h42v-483h-42z" />
<glyph unicode="&#xa2;" horiz-adv-x="405" d="M49 225q0 224 165 241v91h39v-90q43 -2 110 -29l-15 -36q-54 27 -95 31v-409q44 5 97 31l15 -36q-46 -22 -112 -28v-90h-39v90q-165 16 -165 234zM93 225q0 -183 121 -200v407q-121 -18 -121 -207z" />
<glyph unicode="&#xa3;" d="M49 0v39h70v308h-70v39h70v36q0 41 8.5 74.5t19 56.5t32 42t37 29t44.5 20t43 13.5t44 9.5q9 2 14 3l13 -44q-7 -1 -27.5 -5t-29.5 -6t-27.5 -7t-28 -9.5t-25 -12.5t-24 -17.5t-19 -23t-15.5 -29.5t-9 -37.5t-4 -46.5v-46h186v-39h-186v-307h270v-40h-386z" />
<glyph unicode="&#xa4;" d="M0 248l10 37h81q-1 12 -1 38q0 31 1 46h-91l10 37h85q15 115 72.5 183t166.5 68q72 0 151 -27l-12 -45q-72 35 -139 35q-91 0 -134.5 -57.5t-56.5 -156.5h284l-10 -37h-278q-1 -15 -1 -45q0 -26 1 -39h256l-10 -37h-243q11 -106 53 -166.5t132 -60.5q50 0 137 35v-49 q-77 -23 -137 -23q-204 0 -233 264h-94z" />
<glyph unicode="&#xa5;" d="M9 647h52l177 -310l167 310h46l-187 -346h151v-39h-156v-81h156v-39h-156v-142h-46v142h-154v39h154v81h-154v39h147z" />
<glyph unicode="&#xa6;" horiz-adv-x="230" d="M92 -78v234h46v-234h-46zM92 359v234h46v-234h-46z" />
<glyph unicode="&#xa7;" d="M72 330q0 82 73 111q-57 29 -57 90q0 63 45 94.5t111 31.5q57 0 124 -32l-15 -39q-32 19 -54 27t-54 8q-111 0 -111 -87q0 -29 26 -47t63.5 -28t75 -23t63.5 -42.5t26 -75.5q0 -36 -21 -63t-54 -38q59 -32 59 -101q0 -62 -44.5 -97t-110.5 -35q-79 0 -139 28l15 39 q31 -13 44.5 -18t34.5 -9t47 -4q49 0 78 24t29 71q0 37 -26 60t-63.5 34t-75 22.5t-63.5 35.5t-26 63zM118 333q0 -21 15.5 -37t32 -22.5t52 -17.5t49.5 -16q75 20 75 77q0 22 -7 37t-24 25t-30.5 15t-41.5 12.5t-41 12.5q-80 -10 -80 -86z" />
<glyph unicode="&#xa8;" horiz-adv-x="188" d="M-3 584v63h47v-63h-47zM144 584v63h47v-63h-47z" />
<glyph unicode="&#xa9;" horiz-adv-x="720" d="M25 324q0 141 97 237.5t238 96.5q143 0 239 -96t96 -238q0 -141 -97 -237.5t-238 -96.5t-238 96.5t-97 237.5zM64 324q0 -123 86.5 -212t209.5 -89t209.5 89t86.5 212q0 125 -86 213t-210 88q-125 0 -210.5 -88t-85.5 -213zM187 322q0 89 40.5 144.5t129.5 55.5 q47 0 98 -16l-12 -32q-49 20 -86 20q-134 0 -134 -171q0 -176 130 -176q35 0 95 23l11 -32q-59 -19 -106 -19q-84 0 -125 55.5t-41 147.5z" />
<glyph unicode="&#xaa;" d="M125 457q0 42 32 64.5t114 22.5h28v17q0 32 -14.5 47t-48.5 15q-44 0 -90 -21l-9 26q55 19 98 19q42 0 67.5 -20t25.5 -60v-99q0 -13 8 -77h-25q0 2 -4.5 14t-5.5 17q-25 -37 -80 -37q-40 0 -68 18t-28 54zM158 457q0 -48 63 -48q25 0 46.5 12t31.5 31v67h-20 q-67 0 -94 -13.5t-27 -48.5z" />
<glyph unicode="&#xab;" horiz-adv-x="340" d="M38 270l93 182h44l-97 -180l96 -180h-43zM168 270l93 182h44l-97 -180l96 -180h-43z" />
<glyph unicode="&#xac;" d="M15 299v39h425v-220h-46v181h-379z" />
<glyph unicode="&#xad;" horiz-adv-x="315" d="M30 232v40h255v-40h-255z" />
<glyph unicode="&#xae;" horiz-adv-x="720" d="M25 324q0 141 97 237.5t238 96.5q143 0 239 -96t96 -238q0 -141 -97 -237.5t-238 -96.5t-238 96.5t-97 237.5zM64 324q0 -123 86.5 -212t209.5 -89t209.5 89t86.5 212q0 125 -86 213t-210 88q-125 0 -210.5 -88t-85.5 -213zM244 129v389h118q56 0 92.5 -24.5t36.5 -76.5 q0 -48 -29.5 -79t-96.5 -31l146 -178h-42l-144 178h-47v-178h-34zM278 335h88q50 0 69.5 22t19.5 60t-21.5 55t-68.5 17h-87v-154z" />
<glyph unicode="&#xaf;" horiz-adv-x="188" d="M-15 578v46h218v-46h-218z" />
<glyph unicode="&#xb0;" horiz-adv-x="370" d="M50 479q0 57 39.5 95.5t95.5 38.5t95.5 -38.5t39.5 -95.5t-40 -94t-96 -37t-95 37t-39 94zM95 479q0 -36 26.5 -62.5t62.5 -26.5t63 26.5t27 62.5q0 40 -25 66t-64 26t-64.5 -26t-25.5 -66z" />
<glyph unicode="&#xb1;" d="M27 251v40h180v130h46v-130h180v-40h-180v-131h-46v131h-180zM30 2v43h400v-43h-400z" />
<glyph unicode="&#xb2;" horiz-adv-x="315" d="M46 339q10 10 50.5 45t65 59t48 58.5t23.5 59.5q0 39 -20 54.5t-63 15.5q-37 0 -87 -24l-10 29q50 21 98 21q52 0 83.5 -25t31.5 -72q0 -29 -21.5 -62.5t-44 -55t-61.5 -55t-50 -43.5h181v-27h-213z" />
<glyph unicode="&#xb3;" horiz-adv-x="315" d="M50 321l11 29q50 -16 81 -16q90 0 90 66q0 46 -30 62.5t-85 16.5v25q51 0 78.5 14t27.5 54q0 36 -19 47.5t-56 11.5q-26 0 -80 -24l-11 29q45 21 91 21q48 0 78.5 -21t30.5 -63q0 -72 -79 -81q88 -13 88 -92q0 -47 -36 -69t-90 -22q-52 0 -90 12z" />
<glyph unicode="&#xb4;" horiz-adv-x="188" d="M19 530l96 117h54l-111 -117h-39z" />
<glyph unicode="&#xb6;" horiz-adv-x="540" d="M101 489q0 158 181 158h185v-835h-46v796h-101q-48 0 -78 -28.5t-30 -85.5q0 -42 29 -68.5t69 -37.5v-576h-46v526q-46 2 -79 16.5t-50.5 36.5t-25.5 46.5t-8 51.5z" />
<glyph unicode="&#xb7;" horiz-adv-x="230" d="M80 252v75h70v-75h-70z" />
<glyph unicode="&#xb8;" horiz-adv-x="188" d="M5 -159l14 38q56 -7 65 -7q20 0 34 8t14 24t-15.5 24t-64.5 8l21 79h39l-10 -47q34 0 53.5 -18.5t19.5 -43.5q0 -73 -86 -73q-26 0 -84 8z" />
<glyph unicode="&#xb9;" horiz-adv-x="315" d="M80 581l82 66h31v-334h-33v295l-70 -56z" />
<glyph unicode="&#xba;" d="M117 527q0 130 114 130q113 0 113 -130q0 -132 -113 -132q-114 0 -114 132zM148 527q0 -51 18.5 -79.5t64.5 -28.5q82 0 82 108q0 51 -18 78.5t-64 27.5q-83 0 -83 -106z" />
<glyph unicode="&#xbb;" horiz-adv-x="340" d="M35 452h44l93 -182l-93 -178h-43l96 180zM165 452h44l93 -182l-93 -178h-43l96 180z" />
<glyph unicode="&#xbc;" horiz-adv-x="690" d="M65 581l82 66h31v-334h-33v295l-70 -56zM101 0l364 629h44l-367 -629h-41zM342 117l161 217h28v-217h53v-26h-53v-91h-33v91h-144zM371 117h127v172z" />
<glyph unicode="&#xbd;" horiz-adv-x="690" d="M65 581l82 66h31v-334h-33v295l-70 -56zM101 0l362 629h46l-362 -629h-46zM393 28q4 4 66 56.5t92 90t30 70.5q0 39 -20 54.5t-63 15.5q-35 0 -87 -25l-10 30q48 20 98 20q52 0 83.5 -24.5t31.5 -71.5q0 -29 -21.5 -62.5t-44 -55.5t-61.5 -55.5t-50 -43.5h181v-27h-213z " />
<glyph unicode="&#xbe;" horiz-adv-x="690" d="M45 321l11 29q50 -16 81 -16q90 0 90 66q0 46 -30 62.5t-85 16.5v25q51 0 78.5 14t27.5 54q0 36 -19 47.5t-56 11.5q-26 0 -80 -24l-11 29q46 21 91 21q48 0 78.5 -21t30.5 -63q0 -72 -79 -81q88 -13 88 -92q0 -47 -36 -69t-90 -22q-52 0 -90 12zM126 0l362 629h46 l-363 -629h-45zM367 117l161 217h28v-217h53v-26h-53v-91h-33v91h-144zM396 117h127v172z" />
<glyph unicode="&#xbf;" horiz-adv-x="385" d="M51 137q0 33 16.5 61t40 48t47 40.5t40 47t16.5 57.5v98h46v-103q0 -38 -16.5 -68t-40 -50t-47 -38.5t-40 -41.5t-16.5 -51q0 -59 29.5 -84.5t91.5 -25.5q48 0 118 35l18 -42q-86 -30 -136 -30q-167 0 -167 147zM204 576v71h59v-71h-59z" />
<glyph unicode="&#xc0;" horiz-adv-x="608" d="M35 0l263 647h31l244 -647h-52l-75 203h-284l-80 -203h-47zM176 238h258l-123 341zM248 798h54l96 -117h-39z" />
<glyph unicode="&#xc1;" horiz-adv-x="608" d="M35 0l263 647h31l244 -647h-52l-75 203h-284l-80 -203h-47zM176 238h258l-123 341zM235 677l96 117h54l-111 -117h-39z" />
<glyph unicode="&#xc2;" horiz-adv-x="608" d="M35 0l263 647h31l244 -647h-52l-75 203h-284l-80 -203h-47zM176 238h258l-123 341zM204 702l84 107h48l82 -107h-40l-66 74l-68 -74h-40z" />
<glyph unicode="&#xc3;" horiz-adv-x="608" d="M35 0l263 647h31l244 -647h-52l-75 203h-284l-80 -203h-47zM176 238h258l-123 341zM191 702q16 36 32.5 49t47.5 13q15 0 46 -16.5t44 -16.5q28 0 41 39l35 -15q-21 -59 -74 -59q-14 0 -45.5 18t-47.5 18q-32 0 -44 -45z" />
<glyph unicode="&#xc4;" horiz-adv-x="608" d="M35 0l263 647h31l244 -647h-52l-75 203h-284l-80 -203h-47zM176 238h258l-123 341zM216 696v63h47v-63h-47zM363 696v63h47v-63h-47z" />
<glyph unicode="&#xc5;" horiz-adv-x="608" d="M35 0l263 647h31l244 -647h-52l-75 203h-284l-80 -203h-47zM176 238h258l-123 341zM229 753q0 34 24 58t59 24t59 -23.5t24 -58.5q0 -34 -24 -58t-59 -24q-34 0 -58.5 24t-24.5 58zM260 754q0 -19 15 -35.5t37 -16.5q25 0 38 15t13 37t-14 37t-37 15q-22 0 -37 -16 t-15 -36z" />
<glyph unicode="&#xc6;" horiz-adv-x="855" d="M35 0l367 647h384v-37h-343l49 -257h273v-37h-265l51 -279h244v-37h-287l-37 203h-272l-114 -203h-50zM217 238h247l-61 337z" />
<glyph unicode="&#xc7;" horiz-adv-x="527" d="M65 323q0 56 8 104t26.5 91t48 73.5t75 48t104.5 17.5q81 0 151 -23l-18 -42q-65 28 -133 28q-214 0 -214 -296q0 -63 10 -115t33 -95.5t65 -68t100 -24.5q64 0 146 33l18 -42q-69 -25 -144 -28l-3 -16q34 0 53.5 -18.5t19.5 -43.5q0 -73 -86 -73q-26 0 -84 8l14 38 q56 -7 65 -7q20 0 34 8t14 24t-15.5 24t-64.5 8l13 49q-123 7 -179.5 97.5t-56.5 240.5z" />
<glyph unicode="&#xc8;" horiz-adv-x="513" d="M100 0v647h344v-37h-298v-257h277v-37h-277v-279h307v-37h-353zM184 799h54l96 -117h-39z" />
<glyph unicode="&#xc9;" horiz-adv-x="513" d="M100 0v647h344v-37h-298v-257h277v-37h-277v-279h307v-37h-353zM230 677l96 117h54l-111 -117h-39z" />
<glyph unicode="&#xca;" horiz-adv-x="513" d="M100 0v647h344v-37h-298v-257h277v-37h-277v-279h307v-37h-353zM170 687l84 107h48l82 -107h-40l-66 74l-68 -74h-40z" />
<glyph unicode="&#xcb;" horiz-adv-x="513" d="M100 0v647h344v-37h-298v-257h277v-37h-277v-279h307v-37h-353zM176 696v63h47v-63h-47zM323 696v63h47v-63h-47z" />
<glyph unicode="&#xcc;" horiz-adv-x="222" d="M37 809h53l97 -117h-39zM90 0v647h46v-647h-46z" />
<glyph unicode="&#xcd;" horiz-adv-x="222" d="M38 692l96 117h54l-111 -117h-39zM88 0v647h46v-647h-46z" />
<glyph unicode="&#xce;" horiz-adv-x="222" d="M4 702l84 107h48l82 -107h-40l-66 74l-68 -74h-40zM88 0v647h46v-647h-46z" />
<glyph unicode="&#xcf;" horiz-adv-x="222" d="M14 696v63h47v-63h-47zM89 0v647h46v-647h-46zM161 696v63h47v-63h-47z" />
<glyph unicode="&#xd0;" horiz-adv-x="605" d="M29 349v37h71v261h131q172 0 240.5 -72.5t68.5 -248.5q0 -175 -71.5 -250.5t-237.5 -75.5h-131v349h-71zM146 37h94q131 0 191.5 72.5t60.5 215.5q0 155 -56 220t-205 65h-85v-224h175v-37h-175v-312z" />
<glyph unicode="&#xd1;" horiz-adv-x="647" d="M100 0v647h62l341 -593v593h44v-647h-64l-343 593v-593h-40zM183 699q16 36 32.5 49t47.5 13q15 0 46 -16.5t44 -16.5q28 0 41 39l35 -15q-21 -59 -74 -59q-14 0 -45.5 18t-47.5 18q-32 0 -44 -45z" />
<glyph unicode="&#xd2;" horiz-adv-x="657" d="M65 321q0 155 63 245.5t203 90.5q74 0 126 -25t81 -72t41.5 -105t12.5 -134q0 -156 -62 -246.5t-200 -90.5q-144 0 -204.5 89.5t-60.5 247.5zM113 321q0 -140 48.5 -220t168.5 -80q62 0 105.5 22.5t66.5 65t32.5 94t9.5 118.5q0 143 -47 221t-167 78q-63 0 -106.5 -22 t-67 -64t-33.5 -93.5t-10 -119.5zM234 799h54l96 -117h-39z" />
<glyph unicode="&#xd3;" horiz-adv-x="657" d="M65 321q0 155 63 245.5t203 90.5q74 0 126 -25t81 -72t41.5 -105t12.5 -134q0 -156 -62 -246.5t-200 -90.5q-144 0 -204.5 89.5t-60.5 247.5zM113 321q0 -140 48.5 -220t168.5 -80q62 0 105.5 22.5t66.5 65t32.5 94t9.5 118.5q0 143 -47 221t-167 78q-63 0 -106.5 -22 t-67 -64t-33.5 -93.5t-10 -119.5zM290 677l96 117h54l-111 -117h-39z" />
<glyph unicode="&#xd4;" horiz-adv-x="657" d="M65 321q0 155 63 245.5t203 90.5q74 0 126 -25t81 -72t41.5 -105t12.5 -134q0 -156 -62 -246.5t-200 -90.5q-144 0 -204.5 89.5t-60.5 247.5zM113 321q0 -140 48.5 -220t168.5 -80q62 0 105.5 22.5t66.5 65t32.5 94t9.5 118.5q0 143 -47 221t-167 78q-63 0 -106.5 -22 t-67 -64t-33.5 -93.5t-10 -119.5zM225 687l84 107h48l82 -107h-40l-66 74l-68 -74h-40z" />
<glyph unicode="&#xd5;" horiz-adv-x="657" d="M65 321q0 155 63 245.5t203 90.5q74 0 126 -25t81 -72t41.5 -105t12.5 -134q0 -156 -62 -246.5t-200 -90.5q-144 0 -204.5 89.5t-60.5 247.5zM113 321q0 -140 48.5 -220t168.5 -80q62 0 105.5 22.5t66.5 65t32.5 94t9.5 118.5q0 143 -47 221t-167 78q-63 0 -106.5 -22 t-67 -64t-33.5 -93.5t-10 -119.5zM203 699q16 36 32.5 49t47.5 13q15 0 46 -16.5t44 -16.5q28 0 41 39l35 -15q-21 -59 -74 -59q-14 0 -45.5 18t-47.5 18q-32 0 -44 -45z" />
<glyph unicode="&#xd6;" horiz-adv-x="657" d="M65 321q0 155 63 245.5t203 90.5q74 0 126 -25t81 -72t41.5 -105t12.5 -134q0 -156 -62 -246.5t-200 -90.5q-144 0 -204.5 89.5t-60.5 247.5zM113 321q0 -140 48.5 -220t168.5 -80q62 0 105.5 22.5t66.5 65t32.5 94t9.5 118.5q0 143 -47 221t-167 78q-63 0 -106.5 -22 t-67 -64t-33.5 -93.5t-10 -119.5zM233 696v63h47v-63h-47zM380 696v63h47v-63h-47z" />
<glyph unicode="&#xd7;" d="M51 64l149 148l-149 148l32 32l148 -149l148 149l32 -32l-149 -148l149 -148l-32 -32l-148 149l-148 -149z" />
<glyph unicode="&#xd8;" horiz-adv-x="657" d="M16 -1l90 106q-41 79 -41 216q0 155 63 245.5t203 90.5q119 0 185 -69l81 96l31 -29l-86 -101q50 -82 50 -233q0 -156 -62 -246.5t-200 -90.5q-135 0 -200 84l-83 -98zM113 321q0 -110 26 -177l349 411q-52 65 -158 65q-63 0 -106.5 -22t-67 -64t-33.5 -93.5t-10 -119.5z M160 103q53 -82 170 -82q62 0 105.5 22.5t66.5 65t32.5 94t9.5 118.5q0 127 -33 196z" />
<glyph unicode="&#xd9;" horiz-adv-x="655" d="M100 239v408h46v-398q0 -130 41.5 -179t146.5 -49q96 0 135.5 51.5t39.5 176.5v398h46v-410q0 -130 -53 -191.5t-168 -61.5q-126 0 -180 61t-54 194zM244 799h54l96 -117h-39z" />
<glyph unicode="&#xda;" horiz-adv-x="655" d="M100 239v408h46v-398q0 -130 41.5 -179t146.5 -49q96 0 135.5 51.5t39.5 176.5v398h46v-410q0 -130 -53 -191.5t-168 -61.5q-126 0 -180 61t-54 194zM264 680l96 117h54l-111 -117h-39z" />
<glyph unicode="&#xdb;" horiz-adv-x="655" d="M100 239v408h46v-398q0 -130 41.5 -179t146.5 -49q96 0 135.5 51.5t39.5 176.5v398h46v-410q0 -130 -53 -191.5t-168 -61.5q-126 0 -180 61t-54 194zM217 687l84 107h48l82 -107h-40l-66 74l-68 -74h-40z" />
<glyph unicode="&#xdc;" horiz-adv-x="655" d="M100 239v408h46v-398q0 -130 41.5 -179t146.5 -49q96 0 135.5 51.5t39.5 176.5v398h46v-410q0 -130 -53 -191.5t-168 -61.5q-126 0 -180 61t-54 194zM236 696v63h47v-63h-47zM383 696v63h47v-63h-47z" />
<glyph unicode="&#xdd;" horiz-adv-x="532" d="M17 647h52l205 -315l195 315h46l-220 -356v-291h-46v287zM223 692l96 117h54l-111 -117h-39z" />
<glyph unicode="&#xde;" d="M72 0v649h46v-125h78q101 0 159.5 -43.5t58.5 -136.5q0 -99 -63 -144t-165 -45h-68v-155h-46zM118 197h62q38 0 67.5 5.5t59 20t45.5 45.5t16 76q0 141 -166 141h-84v-288z" />
<glyph unicode="&#xdf;" horiz-adv-x="472" d="M72 0v471q0 98 31 142t112 44q64 0 104.5 -36.5t40.5 -100.5q0 -23 -12 -47t-24 -39.5t-36 -35.5t-30 -24l-24 -16q25 -11 40.5 -18t47 -27t50 -40.5t34 -54.5t15.5 -73q0 -46 -12.5 -79.5t-32.5 -53t-50 -31t-59 -15t-65 -3.5l11 36q36 0 63 5.5t53 20.5t39.5 45.5 t13.5 76.5q0 39 -20.5 73.5t-52 57.5t-60 37.5t-53.5 21.5v35q123 79 123 151q0 53 -32 77t-72 24q-58 0 -80 -30.5t-22 -111.5v-482h-41z" />
<glyph unicode="&#xe0;" horiz-adv-x="457" d="M49 120q0 76 52.5 114.5t189.5 38.5h47v42q0 119 -105 119q-69 0 -149 -39l-15 36q93 36 163 36q69 0 108 -37t39 -110v-180q0 -24 12 -140h-33q0 5 -7.5 27.5t-8.5 30.5q-18 -30 -53 -49t-80 -19q-66 0 -113 32.5t-47 97.5zM93 121q0 -45 30 -71.5t86 -26.5 q44 0 78.5 20t51.5 53v143h-34q-119 0 -165.5 -27t-46.5 -91zM106 647h54l96 -117h-39z" />
<glyph unicode="&#xe1;" horiz-adv-x="457" d="M49 120q0 76 52.5 114.5t189.5 38.5h47v42q0 119 -105 119q-69 0 -149 -39l-15 36q93 36 163 36q69 0 108 -37t39 -110v-180q0 -24 12 -140h-33q0 5 -7.5 27.5t-8.5 30.5q-18 -30 -53 -49t-80 -19q-66 0 -113 32.5t-47 97.5zM93 121q0 -45 30 -71.5t86 -26.5 q44 0 78.5 20t51.5 53v143h-34q-119 0 -165.5 -27t-46.5 -91zM175 530l96 117h54l-111 -117h-39z" />
<glyph unicode="&#xe2;" horiz-adv-x="457" d="M49 120q0 76 52.5 114.5t189.5 38.5h47v42q0 119 -105 119q-69 0 -149 -39l-15 36q93 36 163 36q69 0 108 -37t39 -110v-180q0 -24 12 -140h-33q0 5 -7.5 27.5t-8.5 30.5q-18 -30 -53 -49t-80 -19q-66 0 -113 32.5t-47 97.5zM93 121q0 -45 30 -71.5t86 -26.5 q44 0 78.5 20t51.5 53v143h-34q-119 0 -165.5 -27t-46.5 -91zM109 540l84 107h48l82 -107h-40l-66 74l-68 -74h-40z" />
<glyph unicode="&#xe3;" horiz-adv-x="457" d="M49 120q0 76 52.5 114.5t189.5 38.5h47v42q0 119 -105 119q-69 0 -149 -39l-15 36q93 36 163 36q69 0 108 -37t39 -110v-180q0 -24 12 -140h-33q0 5 -7.5 27.5t-8.5 30.5q-18 -30 -53 -49t-80 -19q-66 0 -113 32.5t-47 97.5zM91 558q16 36 32.5 49t47.5 13q15 0 46 -16.5 t44 -16.5q28 0 41 39l35 -15q-21 -59 -74 -59q-14 0 -45.5 18t-47.5 18q-32 0 -44 -45zM93 121q0 -45 30 -71.5t86 -26.5q44 0 78.5 20t51.5 53v143h-34q-119 0 -165.5 -27t-46.5 -91z" />
<glyph unicode="&#xe4;" horiz-adv-x="457" d="M49 120q0 76 52.5 114.5t189.5 38.5h47v42q0 119 -105 119q-69 0 -149 -39l-15 36q93 36 163 36q69 0 108 -37t39 -110v-180q0 -24 12 -140h-33q0 5 -7.5 27.5t-8.5 30.5q-18 -30 -53 -49t-80 -19q-66 0 -113 32.5t-47 97.5zM93 121q0 -45 30 -71.5t86 -26.5 q44 0 78.5 20t51.5 53v143h-34q-119 0 -165.5 -27t-46.5 -91zM129 550v67h48v-67h-48zM278 550v67h47v-67h-47z" />
<glyph unicode="&#xe5;" horiz-adv-x="457" d="M49 120q0 76 52.5 114.5t189.5 38.5h47v42q0 119 -105 119q-69 0 -149 -39l-15 36q93 36 163 36q69 0 108 -37t39 -110v-180q0 -24 12 -140h-33q0 5 -7.5 27.5t-8.5 30.5q-18 -30 -53 -49t-80 -19q-66 0 -113 32.5t-47 97.5zM93 121q0 -45 30 -71.5t86 -26.5 q44 0 78.5 20t51.5 53v143h-34q-119 0 -165.5 -27t-46.5 -91zM137 589q0 34 24 58t59 24t59 -23.5t24 -58.5q0 -34 -24 -58t-59 -24q-34 0 -58.5 24t-24.5 58zM168 590q0 -19 15 -35.5t37 -16.5q25 0 38 15t13 37t-14 37t-37 15q-22 0 -37 -16t-15 -36z" />
<glyph unicode="&#xe6;" horiz-adv-x="749" d="M49 120q0 76 52.5 114.5t189.5 38.5h51v42q0 119 -109 119q-69 0 -149 -39l-15 36q93 36 163 36q112 0 139 -90q43 90 145 90q103 0 142.5 -66t39.5 -182h-316q0 -196 145 -196q63 0 136 39l12 -37q-73 -35 -156 -35q-108 0 -151 94q-30 -48 -67 -71t-92 -23 q-67 0 -113.5 32t-46.5 98zM93 121q0 -45 29.5 -71.5t86.5 -26.5q42 0 79 23t54 57v136h-37q-119 0 -165.5 -27t-46.5 -91zM381 252h276q0 92 -33 137t-107 45q-64 0 -97.5 -48t-38.5 -134z" />
<glyph unicode="&#xe7;" horiz-adv-x="405" d="M49 225q0 113 48.5 176t143.5 63q54 0 106 -21v-44q-45 34 -106 34q-79 0 -114.5 -56.5t-35.5 -151.5q0 -87 37 -144t112 -57q55 0 110 35v-47q-46 -16 -93 -21l-5 -23q34 0 53.5 -19.5t19.5 -42.5q0 -30 -21 -50.5t-65 -20.5q-41 0 -84 6v37q56 -7 79 -7q20 0 35 9 t15 24q0 16 -16.5 24.5t-65.5 8.5l15 54q-82 8 -125 70.5t-43 163.5z" />
<glyph unicode="&#xe8;" horiz-adv-x="461" d="M49 224q0 43 9 83t28.5 77.5t56 60t86.5 22.5q54 0 90.5 -19t55.5 -55t26.5 -77.5t7.5 -96.5h-315q0 -196 145 -196q64 0 141 41l12 -37q-77 -37 -161 -37q-94 0 -138 65t-44 169zM93 252h276q0 92 -33 137t-107 45q-64 0 -97.5 -48t-38.5 -134zM123 647h54l96 -117h-39z " />
<glyph unicode="&#xe9;" horiz-adv-x="461" d="M49 224q0 43 9 83t28.5 77.5t56 60t86.5 22.5q54 0 90.5 -19t55.5 -55t26.5 -77.5t7.5 -96.5h-315q0 -196 145 -196q64 0 141 41l12 -37q-77 -37 -161 -37q-94 0 -138 65t-44 169zM93 252h276q0 92 -33 137t-107 45q-64 0 -97.5 -48t-38.5 -134zM159 530l96 117h54 l-111 -117h-39z" />
<glyph unicode="&#xea;" horiz-adv-x="461" d="M49 224q0 43 9 83t28.5 77.5t56 60t86.5 22.5q54 0 90.5 -19t55.5 -55t26.5 -77.5t7.5 -96.5h-315q0 -196 145 -196q64 0 141 41l12 -37q-77 -37 -161 -37q-94 0 -138 65t-44 169zM93 252h276q0 92 -33 137t-107 45q-64 0 -97.5 -48t-38.5 -134zM117 540l84 107h48 l82 -107h-40l-66 74l-68 -74h-40z" />
<glyph unicode="&#xeb;" horiz-adv-x="461" d="M49 224q0 43 9 83t28.5 77.5t56 60t86.5 22.5q54 0 90.5 -19t55.5 -55t26.5 -77.5t7.5 -96.5h-315q0 -196 145 -196q64 0 141 41l12 -37q-77 -37 -161 -37q-94 0 -138 65t-44 169zM93 252h276q0 92 -33 137t-107 45q-64 0 -97.5 -48t-38.5 -134zM137 564v63h47v-63h-47z M284 564v63h47v-63h-47z" />
<glyph unicode="&#xec;" horiz-adv-x="188" d="M18 647h54l96 -117h-39zM74 0v457h41v-457h-41z" />
<glyph unicode="&#xed;" horiz-adv-x="188" d="M20 530l96 117h54l-111 -117h-39zM74 0v457h41v-457h-41z" />
<glyph unicode="&#xee;" horiz-adv-x="188" d="M-13 540l84 107h48l82 -107h-40l-66 74l-68 -74h-40zM72 0v457h41v-457h-41z" />
<glyph unicode="&#xef;" horiz-adv-x="188" d="M-3 574v63h47v-63h-47zM75 0v457h41v-457h-41zM144 574v63h47v-63h-47z" />
<glyph unicode="&#xf0;" d="M44 196q0 90 46.5 144.5t131.5 54.5q51 0 89.5 -32t61.5 -82q0 205 -114 285l-91 -61l-39 23l91 61q-44 21 -102 33l-20 46q98 -19 159 -54l83 56l39 -23l-85 -57q121 -92 121 -307q0 -62 -7.5 -110t-27.5 -93t-60 -69.5t-98 -24.5q-82 0 -130 62t-48 148zM92 196 q0 -78 35 -126t94 -48q74 0 108.5 51t34.5 173q-7 17 -16.5 33.5t-26.5 36t-43.5 31.5t-57.5 12q-128 0 -128 -163z" />
<glyph unicode="&#xf1;" horiz-adv-x="469" d="M64 457h33l13 -72l7 9q7 10 10 13.5t11.5 13t15 14t17.5 12t21.5 11t24.5 6.5t29 3q151 0 151 -179v-288h-41v280q0 35 -4.5 60t-16 47.5t-35.5 34.5t-60 12q-45 0 -79.5 -32.5t-47.5 -69.5v-332h-41v360q0 21 -3.5 51.5t-4.5 45.5zM119 558q16 36 32.5 49t47.5 13 q15 0 46 -16.5t44 -16.5q28 0 41 39l35 -15q-21 -59 -74 -59q-14 0 -45.5 18t-47.5 18q-32 0 -44 -45z" />
<glyph unicode="&#xf2;" horiz-adv-x="477" d="M49 231q0 68 16 118t60 84t114 34q189 0 189 -236q0 -241 -189 -241q-190 0 -190 241zM93 231q0 -208 146 -208q83 0 114 55.5t31 152.5q0 45 -6.5 79.5t-22 63.5t-45 44.5t-71.5 15.5q-77 0 -111.5 -55.5t-34.5 -147.5zM145 647h54l96 -117h-39z" />
<glyph unicode="&#xf3;" horiz-adv-x="477" d="M49 231q0 68 16 118t60 84t114 34q189 0 189 -236q0 -241 -189 -241q-190 0 -190 241zM93 231q0 -208 146 -208q83 0 114 55.5t31 152.5q0 45 -6.5 79.5t-22 63.5t-45 44.5t-71.5 15.5q-77 0 -111.5 -55.5t-34.5 -147.5zM171 530l96 117h54l-111 -117h-39z" />
<glyph unicode="&#xf4;" horiz-adv-x="477" d="M49 231q0 68 16 118t60 84t114 34q189 0 189 -236q0 -241 -189 -241q-190 0 -190 241zM93 231q0 -208 146 -208q83 0 114 55.5t31 152.5q0 45 -6.5 79.5t-22 63.5t-45 44.5t-71.5 15.5q-77 0 -111.5 -55.5t-34.5 -147.5zM133 540l84 107h48l82 -107h-40l-66 74l-68 -74 h-40z" />
<glyph unicode="&#xf5;" horiz-adv-x="477" d="M49 231q0 68 16 118t60 84t114 34q189 0 189 -236q0 -241 -189 -241q-190 0 -190 241zM93 231q0 -208 146 -208q83 0 114 55.5t31 152.5q0 45 -6.5 79.5t-22 63.5t-45 44.5t-71.5 15.5q-77 0 -111.5 -55.5t-34.5 -147.5zM103 558q16 36 32.5 49t47.5 13q15 0 46 -16.5 t44 -16.5q28 0 41 39l35 -15q-21 -59 -74 -59q-14 0 -45.5 18t-47.5 18q-32 0 -44 -45z" />
<glyph unicode="&#xf6;" horiz-adv-x="477" d="M49 231q0 68 16 118t60 84t114 34q189 0 189 -236q0 -241 -189 -241q-190 0 -190 241zM93 231q0 -208 146 -208q83 0 114 55.5t31 152.5q0 45 -6.5 79.5t-22 63.5t-45 44.5t-71.5 15.5q-77 0 -111.5 -55.5t-34.5 -147.5zM136 564v63h47v-63h-47zM283 564v63h47v-63h-47z " />
<glyph unicode="&#xf7;" d="M30 196v43h400v-43h-400zM203 20v69h56v-69h-56zM203 363v69h56v-69h-56z" />
<glyph unicode="&#xf8;" horiz-adv-x="477" d="M12 9l67 70q-30 60 -30 152q0 68 16 118t60 84t114 34q96 0 143 -61l60 65l32 -30l-69 -74q23 -55 23 -136q0 -241 -189 -241q-86 0 -135 52l-60 -63zM93 231q0 -71 17 -119l244 264q-35 58 -115 58q-77 0 -111.5 -55.5t-34.5 -147.5zM131 71q35 -48 108 -48 q83 0 114 55.5t31 152.5q0 60 -11 101z" />
<glyph unicode="&#xf9;" horiz-adv-x="462" d="M72 169v288h41v-280q0 -73 23 -113.5t90 -40.5q45 0 77.5 32t45.5 70v332h41v-360q0 -21 3.5 -51.5t4.5 -45.5h-33l-13 72q-1 -1 -10 -13.5t-14 -18t-17.5 -17t-24.5 -17.5t-31 -11t-40 -5q-143 0 -143 179zM139 647h54l96 -117h-39z" />
<glyph unicode="&#xfa;" horiz-adv-x="462" d="M72 169v288h41v-280q0 -73 23 -113.5t90 -40.5q45 0 77.5 32t45.5 70v332h41v-360q0 -21 3.5 -51.5t4.5 -45.5h-33l-13 72q-1 -1 -10 -13.5t-14 -18t-17.5 -17t-24.5 -17.5t-31 -11t-40 -5q-143 0 -143 179zM163 530l96 117h54l-111 -117h-39z" />
<glyph unicode="&#xfb;" horiz-adv-x="462" d="M72 169v288h41v-280q0 -73 23 -113.5t90 -40.5q45 0 77.5 32t45.5 70v332h41v-360q0 -21 3.5 -51.5t4.5 -45.5h-33l-13 72q-1 -1 -10 -13.5t-14 -18t-17.5 -17t-24.5 -17.5t-31 -11t-40 -5q-143 0 -143 179zM127 540l84 107h48l82 -107h-40l-66 74l-68 -74h-40z" />
<glyph unicode="&#xfc;" horiz-adv-x="462" d="M72 169v288h41v-280q0 -73 23 -113.5t90 -40.5q45 0 77.5 32t45.5 70v332h41v-360q0 -21 3.5 -51.5t4.5 -45.5h-33l-13 72q-1 -1 -10 -13.5t-14 -18t-17.5 -17t-24.5 -17.5t-31 -11t-40 -5q-143 0 -143 179zM134 564v63h47v-63h-47zM281 564v63h47v-63h-47z" />
<glyph unicode="&#xfd;" horiz-adv-x="464" d="M42 457l44 1l160 -392l136 391h40l-191 -530q-19 -51 -43 -74t-79 -43l-12 38q71 19 88 65l40 106zM175 530l96 117h54l-111 -117h-39z" />
<glyph unicode="&#xfe;" horiz-adv-x="471" d="M64 -180q8 77 8 320v517h41v-272q17 31 54 56.5t83 25.5q88 0 130 -66t42 -170q0 -107 -42.5 -174t-134.5 -67q-40 0 -77.5 20t-57.5 48l-13 -238h-33zM111 99q47 -76 124 -76q143 0 143 206q0 104 -35 154.5t-96 50.5q-31 0 -56.5 -12t-41.5 -31.5t-24.5 -33 t-13.5 -26.5v-232z" />
<glyph unicode="&#xff;" horiz-adv-x="464" d="M42 457l44 1l160 -392l136 391h40l-191 -530q-19 -51 -43 -74t-79 -43l-12 38q71 19 88 65l40 106zM140 565v62h46v-62h-46zM285 565v62h46v-62h-46z" />
<glyph unicode="&#x152;" horiz-adv-x="897" d="M65 321q0 155 63 245.5t203 90.5q45 0 81 -10h416v-37h-342q87 -67 94 -257h227v-37h-226q0 -202 -92 -279h348v-37h-410q-46 -16 -97 -16q-144 0 -204.5 89.5t-60.5 247.5zM113 321q0 -140 48.5 -220t168.5 -80q61 0 102 22.5t63 65.5t30.5 93.5t8.5 118.5q0 55 -5 97.5 t-18.5 81.5t-36 64.5t-59 40.5t-85.5 15q-63 0 -106.5 -22t-67 -64t-33.5 -93.5t-10 -119.5z" />
<glyph unicode="&#x153;" horiz-adv-x="794" d="M49 231q0 68 16 118t60 84t114 34q133 0 168 -120q38 120 154 120q103 0 142.5 -66t39.5 -182h-316q0 -196 145 -196q63 0 136 39l12 -37q-73 -35 -156 -35q-122 0 -159 118q-35 -118 -166 -118q-190 0 -190 241zM93 231q0 -208 146 -208q83 0 114 55.5t31 152.5 q0 45 -6.5 79.5t-22 63.5t-45 44.5t-71.5 15.5q-77 0 -111.5 -55.5t-34.5 -147.5zM426 252h276q0 92 -33 137t-107 45q-64 0 -97.5 -48t-38.5 -134z" />
<glyph unicode="&#x178;" horiz-adv-x="532" d="M17 647h52l205 -315l195 315h46l-220 -356v-291h-46v287zM179 716v63h47v-63h-47zM326 716v63h47v-63h-47z" />
<glyph unicode="&#x2c6;" horiz-adv-x="188" d="M-13 540l84 107h48l82 -107h-40l-66 74l-68 -74h-40z" />
<glyph unicode="&#x2dc;" horiz-adv-x="188" d="M-29 558q16 36 32.5 49t47.5 13q15 0 46 -16.5t44 -16.5q28 0 41 39l35 -15q-21 -59 -74 -59q-14 0 -45.5 18t-47.5 18q-32 0 -44 -45z" />
<glyph unicode="&#x2000;" horiz-adv-x="417" />
<glyph unicode="&#x2001;" horiz-adv-x="835" />
<glyph unicode="&#x2002;" horiz-adv-x="417" />
<glyph unicode="&#x2003;" horiz-adv-x="835" />
<glyph unicode="&#x2004;" horiz-adv-x="278" />
<glyph unicode="&#x2005;" horiz-adv-x="208" />
<glyph unicode="&#x2006;" horiz-adv-x="139" />
<glyph unicode="&#x2007;" horiz-adv-x="139" />
<glyph unicode="&#x2008;" horiz-adv-x="104" />
<glyph unicode="&#x2009;" horiz-adv-x="167" />
<glyph unicode="&#x200a;" horiz-adv-x="46" />
<glyph unicode="&#x2010;" horiz-adv-x="315" d="M30 232v40h255v-40h-255z" />
<glyph unicode="&#x2011;" horiz-adv-x="315" d="M30 232v40h255v-40h-255z" />
<glyph unicode="&#x2012;" horiz-adv-x="315" d="M30 232v40h255v-40h-255z" />
<glyph unicode="&#x2013;" horiz-adv-x="500" d="M-1 218v44h502v-44h-502z" />
<glyph unicode="&#x2014;" horiz-adv-x="1000" d="M-1 218v44h1002v-44h-1002z" />
<glyph unicode="&#x2018;" horiz-adv-x="230" d="M45 460l99 188h36l-85 -188h-50z" />
<glyph unicode="&#x2019;" horiz-adv-x="230" d="M50 459l83 188h52l-97 -188h-38z" />
<glyph unicode="&#x201a;" horiz-adv-x="230" d="M50 -88l83 188h52l-97 -188h-38z" />
<glyph unicode="&#x201c;" horiz-adv-x="340" d="M40 460l99 188h36l-85 -188h-50zM165 460l98 188h37l-85 -188h-50z" />
<glyph unicode="&#x201d;" horiz-adv-x="340" d="M40 459l85 188h50l-98 -188h-37zM163 459l85 188h52l-99 -188h-38z" />
<glyph unicode="&#x201e;" horiz-adv-x="340" d="M40 -88l85 188h50l-98 -188h-37zM163 -88l85 188h52l-99 -188h-38z" />
<glyph unicode="&#x2022;" d="M111 324q0 50 34.5 84.5t84.5 34.5t84.5 -34.5t34.5 -84.5t-34.5 -85t-84.5 -35t-84.5 35t-34.5 85z" />
<glyph unicode="&#x2026;" horiz-adv-x="690" d="M87 0v69h56v-69h-56zM317 0v69h56v-69h-56zM547 0v69h56v-69h-56z" />
<glyph unicode="&#x202f;" horiz-adv-x="167" />
<glyph unicode="&#x2039;" horiz-adv-x="230" d="M42 270l93 182h44l-97 -180l96 -180h-43z" />
<glyph unicode="&#x203a;" horiz-adv-x="230" d="M51 452h44l93 -182l-93 -178h-43l96 180z" />
<glyph unicode="&#x205f;" horiz-adv-x="208" />
<glyph unicode="&#x2122;" horiz-adv-x="890" d="M90 620v27h265v-27h-117v-329h-32v329h-116zM407 292v355h41l142 -312l142 312h38v-355h-30v322l-144 -322h-15l-146 322v-322h-28z" />
<glyph unicode="&#xe000;" horiz-adv-x="455" d="M0 0v455h455v-455h-455z" />
<glyph unicode="&#xfb01;" horiz-adv-x="400" d="M17 424v33h69v68q0 115 124 140l12 -37q-53 -11 -74 -32.5t-21 -67.5v-71h84v-33h-84v-424h-41v424h-69zM283 579v68h47v-68h-47zM286 0v457h41v-457h-41z" />
<glyph unicode="&#xfb02;" horiz-adv-x="400" d="M17 424v33h69v68q0 115 124 140l12 -37q-53 -11 -74 -32.5t-21 -67.5v-71h84v-33h-84v-424h-41v424h-69zM287 0v657h41v-657h-41z" />
</font>
</defs>
</svg>
