<?xml version="1.0" standalone="no"?>
<!DOCTYPE svg PUBLIC "-//W3C//DTD SVG 1.1//EN" "http://www.w3.org/Graphics/SVG/1.1/DTD/svg11.dtd" >
<svg xmlns="http://www.w3.org/2000/svg">
<metadata></metadata>
<defs>
<font id="colaborate-boldregular" horiz-adv-x="566" >
<font-face units-per-em="1000" ascent="800" descent="-200" />
<missing-glyph horiz-adv-x="283" />
<glyph horiz-adv-x="1000" />
<glyph horiz-adv-x="1000" />
<glyph unicode="&#xd;" horiz-adv-x="1000" />
<glyph unicode=" "  horiz-adv-x="283" />
<glyph unicode="&#x09;" horiz-adv-x="283" />
<glyph unicode="&#xa0;" horiz-adv-x="283" />
<glyph unicode="!" horiz-adv-x="283" d="M71 0v123h140v-123h-140zM74 188v459h135v-459h-135z" />
<glyph unicode="&#x22;" horiz-adv-x="283" d="M73 647h117l-8 -217h-101zM231 647h115l-8 -217h-99z" />
<glyph unicode="#" d="M18 161v92h109l22 133h-92v92h110l29 169h110l-29 -169h67l29 169h110l-29 -169h95v-92h-113l-22 -133h96v-92h-113l-28 -161h-110l28 161h-66l-29 -161h-110l28 161h-92zM237 253h66l23 133h-66z" />
<glyph unicode="$" d="M35 479q0 77 53.5 122t135.5 57v88h103v-86q93 -8 152 -28l-46 -127q-70 30 -106 37v-159q39 -15 66 -29.5t55.5 -39t43.5 -61t15 -85.5q0 -88 -46.5 -129.5t-133.5 -52.5v-84h-103v78q-70 1 -184 32l46 127q8 -3 32 -12.5t37 -14t33 -9.5t36 -6v177q-35 14 -55 23 t-49 27t-45 37.5t-28 50t-12 67.5zM184 479q0 -31 43 -55v113q-43 -14 -43 -58zM324 109q34 16 34 57q0 31 -34 60v-117z" />
<glyph unicode="%" horiz-adv-x="876" d="M38 489q0 172 153 172q81 0 117.5 -42t36.5 -130q0 -90 -37 -135t-118 -45q-80 0 -116 45t-36 135zM134 489q0 -64 10.5 -87.5t45.5 -23.5q33 0 45.5 26.5t12.5 84.5q0 59 -12 81t-45 22q-35 0 -46 -24t-11 -79zM196 0l362 629h115l-363 -629h-114zM533 166 q0 172 153 172q81 0 116.5 -42t35.5 -130q0 -90 -36 -135t-117 -45q-80 0 -116 45t-36 135zM629 166q0 -64 10.5 -87.5t45.5 -23.5q33 0 45.5 26.5t12.5 84.5q0 59 -12 81t-45 22q-35 0 -46 -24t-11 -79z" />
<glyph unicode="&#x26;" d="M46 185q0 130 103 184q-1 1 -12 9.5t-15.5 12.5t-15 14t-16 18t-12 20t-9.5 25t-3 27q0 74 48.5 121.5t146.5 47.5q93 0 144 -43.5t51 -124.5q0 -84 -186 -164q-49 -21 -66.5 -55.5t-17.5 -89.5q0 -101 87 -101q8 0 15.5 1.5t13 3.5t12.5 7l10.5 7.5t11 9.5t10 10 t10.5 12t10 11v57h-80v96h216v-161q0 -25 10 -79.5t10 -60.5h-130l-18 41q-16 -21 -54 -39.5t-63 -18.5q-40 0 -74.5 9.5t-67 30.5t-51 62.5t-18.5 99.5zM201 496q0 -9 2.5 -18t8 -17t9.5 -13t11.5 -13t9.5 -10q24 11 38 19t27 22.5t13 30.5q0 64 -61 64q-30 0 -44 -18.5 t-14 -46.5z" />
<glyph unicode="'" horiz-adv-x="283" d="M83 647h117l-8 -217h-101z" />
<glyph unicode="(" horiz-adv-x="335" d="M54 254q0 130 22.5 211t78.5 182h125q-53 -97 -72 -181t-19 -212q0 -112 19 -194.5t77 -187.5h-125q-63 109 -84.5 188.5t-21.5 193.5z" />
<glyph unicode=")" horiz-adv-x="335" d="M55 -128q58 105 77 187.5t19 194.5q0 128 -19 212t-72 181h124q56 -101 78.5 -182t22.5 -211q0 -114 -21.5 -193.5t-84.5 -188.5h-124z" />
<glyph unicode="*" horiz-adv-x="450" d="M8 463l26 79l153 -56l10 8l-7 157h77l-6 -160l9 -6l151 55l20 -78l-153 -36l-1 -11l100 -132l-64 -45l-87 136h-12l-91 -138l-64 50l102 129l-4 11z" />
<glyph unicode="+" d="M60 174v101h167v159h112v-159h167v-101h-167v-174h-112v174h-167z" />
<glyph unicode="," horiz-adv-x="283" d="M28 -103l43 178h141l-81 -178h-103z" />
<glyph unicode="-" horiz-adv-x="362" d="M26 160v112h310v-112h-310z" />
<glyph unicode="." horiz-adv-x="283" d="M71 0v124h141v-124h-141z" />
<glyph unicode="/" horiz-adv-x="323" d="M-1 -11l213 668h112l-210 -668h-115z" />
<glyph unicode="0" d="M38 308q0 161 58.5 237.5t185.5 76.5q134 0 190 -76t56 -238q0 -165 -56.5 -245.5t-190.5 -80.5q-133 0 -188 80t-55 246zM190 308q0 -49 1.5 -77.5t6.5 -58t14.5 -44t26.5 -24t42 -9.5q56 0 75.5 51.5t19.5 161.5q0 113 -17.5 157t-76.5 44q-21 0 -37 -6t-25.5 -20 t-16 -29.5t-9 -41.5t-3.5 -47.5t-1 -56.5z" />
<glyph unicode="1" d="M115 487l162 120h148v-608h-152v468l-113 -87z" />
<glyph unicode="2" d="M53 124q46 29 72 46t77.5 54.5t81.5 65t54.5 62t24.5 60.5q0 98 -85 98q-63 0 -159 -52l-43 123q87 28 119 35t85 7q45 0 83.5 -9.5t74 -31t56 -64t20.5 -102.5q0 -56 -45 -120t-100.5 -108.5t-110.5 -75.5h268v-112h-432z" />
<glyph unicode="3" d="M42 9l44 123q12 -8 65.5 -22.5t97.5 -14.5q48 0 72 25.5t24 56.5q0 24 -9 40.5t-22.5 25.5t-40.5 13.5t-51 5.5t-66 1v112h18q38 0 57.5 1t42.5 4.5t32.5 11t16.5 21t7 33.5q0 31 -20 47.5t-57 16.5q-60 0 -156 -47l-44 123q31 15 97 26t109 11q223 0 223 -175 q0 -56 -40 -88.5t-99 -39.5q63 -10 108.5 -45t45.5 -99q0 -56 -23 -96t-61.5 -60t-79.5 -29t-87 -9q-126 0 -204 27z" />
<glyph unicode="4" d="M7 272l272 335h169v-335h96v-114h-96v-158h-150v158h-242zM131 272h167v203z" />
<glyph unicode="5" d="M44 7l43 123q88 -35 168 -35q36 0 59.5 9t33.5 26.5t13.5 33t3.5 37.5q0 49 -20.5 65.5t-57.5 16.5q-20 0 -36 -2t-30 -8t-20.5 -9t-20.5 -12t-17 -11l-94 35v331h421v-113h-271v-107q24 11 80 11q97 0 156.5 -49t59.5 -150t-76.5 -159t-184.5 -58q-134 0 -210 25z" />
<glyph unicode="6" d="M45 283q0 50 9 97t30.5 91.5t53 78t80 53.5t107.5 20q79 0 154 -20l-43 -123q-56 30 -106 30q-41 0 -71 -16t-44.5 -42t-20.5 -52t-6 -53q18 34 54.5 47.5t61.5 13.5q216 0 216 -228q0 -89 -69 -143.5t-161 -54.5q-245 0 -245 301zM197 233q0 -83 24.5 -110.5t69.5 -27.5 q33 0 55 20t22 65q0 3 0.5 12.5t0.5 16.5q0 86 -77 86q-71 0 -95 -62z" />
<glyph unicode="7" d="M58 495v111h395l46 -93l-209 -513h-160l233 495h-305z" />
<glyph unicode="8" d="M39 158q0 134 145 162q-62 22 -87 46q-37 35 -37 87q0 80 56.5 125t170.5 45q123 0 174.5 -41t51.5 -128q0 -33 -14.5 -59t-36.5 -41t-41.5 -23.5t-37.5 -11.5q73 -16 109 -54t36 -107q0 -95 -64 -135.5t-182 -40.5q-117 0 -180 40t-63 136zM187 162q0 -68 95 -68 q97 0 97 68q0 42 -24 65t-70 39q-51 -19 -74.5 -39.5t-23.5 -64.5zM207 447q0 -17 6 -30t20 -22t22.5 -13t27.5 -11q26 10 40.5 17t28 22.5t13.5 36.5q0 15 -1.5 23t-8.5 19t-24 16.5t-44 5.5q-50 0 -65 -16.5t-15 -47.5z" />
<glyph unicode="9" d="M47 424q0 89 71 144t159 55q60 0 104.5 -17.5t71 -45.5t42 -69t21 -80.5t5.5 -88.5q0 -50 -9 -97t-30.5 -91.5t-52.5 -78t-79.5 -53.5t-107.5 -20q-80 0 -155 20l43 123q56 -30 107 -30q41 0 71 16t44 42t20 52t6 53q-18 -34 -54.5 -47.5t-61.5 -13.5q-215 0 -215 227z M197 397q0 -87 78 -87q40 0 61 16t33 46q0 84 -24 111t-69 27q-33 0 -55.5 -20.5t-22.5 -65.5q0 -2 -0.5 -11.5t-0.5 -15.5z" />
<glyph unicode=":" horiz-adv-x="283" d="M71 0v124h141v-124h-141zM71 328v124h141v-124h-141z" />
<glyph unicode=";" horiz-adv-x="283" d="M28 -103l44 178h140l-81 -178h-103zM72 328v124h141v-124h-141z" />
<glyph unicode="&#x3c;" d="M50 182v140l466 139v-129l-330 -80l330 -78v-129z" />
<glyph unicode="=" d="M50 55v100h466v-100h-466zM50 228v100h466v-100h-466z" />
<glyph unicode="&#x3e;" d="M50 45v129l330 80l-330 78v129l466 -136v-141z" />
<glyph unicode="?" horiz-adv-x="485" d="M51 627q32 11 92 20.5t97 9.5q30 0 53 -2t55.5 -12t53.5 -27.5t36.5 -51.5t15.5 -81q0 -33 -17 -60.5t-41.5 -47t-49.5 -37t-42 -38.5t-17 -44v-74h-134v79q0 38 16 67.5t38.5 48t45.5 34t39 33.5t16 39q0 30 -14 43.5t-54 13.5q-30 0 -88 -11t-83 -24zM150 0v123h140 v-123h-140z" />
<glyph unicode="@" horiz-adv-x="930" d="M79 320q0 89 33 156t92 106.5t132.5 59t161.5 19.5q36 0 73 -5.5t78 -17.5t76 -34t64 -51.5t45.5 -74t16.5 -97.5q0 -74 -29 -126.5t-80 -79t-106.5 -38t-122.5 -11.5q-245 0 -245 197q0 85 51.5 137t166.5 52q75 0 120 -14v-133l13 -2l36 -97l-172 -12v150q-8 5 -9 5h-9 q-64 0 -64 -87q0 -98 100 -98h14q42 0 64 1.5t52.5 9.5t45.5 23.5t26.5 46t11.5 75.5q0 176 -217 176q-21 0 -37.5 -1t-47.5 -5.5t-55 -13t-52 -26t-47 -42t-31.5 -62.5t-12.5 -86q0 -235 284 -235h5q77 0 214 30l47 -112q-130 -23 -264 -23q-91 0 -166.5 20t-133.5 60 t-90 106t-32 154z" />
<glyph unicode="A" horiz-adv-x="705" d="M27 0l263 647h144l244 -647h-168l-52 163h-214l-54 -163h-163zM286 278h133l-64 205z" />
<glyph unicode="B" horiz-adv-x="647" d="M92 0v647h255q218 0 218 -182q0 -49 -28.5 -81.5t-74.5 -44.5q62 -6 97.5 -43t35.5 -104q0 -103 -60 -147.5t-155 -44.5h-288zM244 117h130q26 0 46 19t20 56q0 42 -21 62.5t-56 20.5h-119v-158zM244 391h117q23 0 36.5 19.5t13.5 53.5q0 14 -3.5 27t-19 26t-41.5 13 h-103v-139z" />
<glyph unicode="C" horiz-adv-x="591" d="M57 323q0 71 16 129.5t51 106.5t98 75t150 27q95 0 178 -27l-46 -127q-86 37 -132 37q-83 0 -120.5 -53t-37.5 -167q0 -120 35 -173.5t117 -53.5q16 0 30.5 2t30.5 7t26 8.5t29.5 12t28.5 12.5l46 -127q-91 -32 -188 -32q-312 0 -312 343z" />
<glyph unicode="D" horiz-adv-x="695" d="M92 0v647h237q157 0 233 -74t76 -247q0 -177 -74 -251.5t-235 -74.5h-237zM244 117h94q26 0 44 3t38 15.5t32.5 34t20.5 61t8 94.5q0 43 -5.5 76t-13 54.5t-21.5 36.5t-24.5 22t-29 11t-29 4.5t-29.5 0.5h-85v-413z" />
<glyph unicode="E" horiz-adv-x="603" d="M92 0v647h397v-117h-245v-137h224v-117h-224v-159h254v-117h-406z" />
<glyph unicode="F" horiz-adv-x="539" d="M92 0v647h397v-118h-245v-140h233v-116h-233v-273h-152z" />
<glyph unicode="G" horiz-adv-x="653" d="M57 324q0 156 79 246.5t241 90.5q66 0 170 -27l-46 -127q-2 1 -16 7t-18 8t-16 6.5t-18.5 6.5t-17 4.5t-19.5 3.5t-18 1q-37 0 -63.5 -8.5t-51 -30.5t-37 -67.5t-12.5 -113.5q0 -120 35 -173.5t122 -53.5q37 0 53.5 3t36.5 15v127h-143v117h278v-320q-52 -32 -102 -45.5 t-126 -13.5q-311 0 -311 344z" />
<glyph unicode="H" horiz-adv-x="714" d="M92 0v647h152v-254h226v254h152v-647h-152v275h-226v-275h-152z" />
<glyph unicode="I" horiz-adv-x="312" d="M80 0v647h152v-647h-152z" />
<glyph unicode="J" horiz-adv-x="465" d="M12 0q7 1 27.5 5t29.5 6t27.5 7t28 9.5t25 12.5t24 17.5t19 23t15.5 29.5t9 37.5t4 46.5v453h152v-443q0 -47 -10.5 -87t-27 -69.5t-43.5 -54.5t-52 -41.5t-61 -32t-62.5 -24t-64.5 -19.5z" />
<glyph unicode="K" horiz-adv-x="694" d="M92 0v647h152v-262l216 262h172l-246 -303l295 -344h-196l-241 286v-286h-152z" />
<glyph unicode="L" horiz-adv-x="505" d="M92 0v647h152v-527h256v-120h-408z" />
<glyph unicode="M" horiz-adv-x="967" d="M92 0v647h255l140 -445l145 445h245v-647h-151v485l-163 -485h-163l-162 485v-485h-146z" />
<glyph unicode="N" horiz-adv-x="753" d="M92 0v647h228l191 -467v467h150v-647h-230l-193 467v-467h-146z" />
<glyph unicode="O" horiz-adv-x="747" d="M57 321q0 74 17 133.5t53.5 107t99.5 73.5t149 26q314 0 314 -340q0 -156 -74.5 -248.5t-240.5 -92.5q-318 0 -318 341zM214 321q0 -129 39 -176.5t122 -47.5q82 0 120 53t38 171q0 123 -39.5 173t-118.5 50q-81 0 -121 -50.5t-40 -172.5z" />
<glyph unicode="P" horiz-adv-x="622" d="M92 0v647h247q235 0 235 -199q0 -205 -224 -205h-106v-243h-152zM244 360h98q32 0 55 20.5t23 67.5q0 29 -7.5 47t-22.5 25t-25 8.5t-28 1.5h-93v-170z" />
<glyph unicode="Q" horiz-adv-x="747" d="M57 321q0 74 17 133.5t53 107t99 73.5t150 26q314 0 314 -340q0 -156 -74.5 -248.5t-240.5 -92.5q-318 0 -318 341zM214 321q0 -129 39 -176.5t122 -47.5q82 0 120 53t38 171q0 123 -39.5 173t-118.5 50q-81 0 -121 -50.5t-40 -172.5zM326 -128l51 83l233 -22l-51 -96z " />
<glyph unicode="R" horiz-adv-x="670" d="M92 0v647h262q225 0 225 -194q0 -69 -35 -120.5t-113 -68.5l197 -264h-187l-188 259h-9v-259h-152zM244 376h116q30 0 47.5 21.5t17.5 55.5q0 77 -66 77h-115v-154z" />
<glyph unicode="S" horiz-adv-x="616" d="M62 12l46 127q112 -42 159 -42q69 0 101 13.5t32 55.5q0 29 -25 50.5t-62.5 34.5t-81.5 32t-81.5 40t-62.5 61.5t-25 94.5q0 62 41 104.5t97.5 60t120.5 17.5q96 0 181 -29l-46 -127q-6 2 -22 9.5t-25 11.5t-24 9t-31 7t-34 2q-33 0 -56 -7t-32 -18.5t-12.5 -21 t-3.5 -18.5q0 -24 25 -42t62.5 -29t81.5 -29.5t81.5 -41.5t62.5 -66.5t25 -102.5q0 -58 -23 -97t-66 -58t-89.5 -26t-109.5 -7q-87 0 -204 32z" />
<glyph unicode="T" horiz-adv-x="535" d="M20 529v118h495v-118h-171v-529h-153v529h-171z" />
<glyph unicode="U" horiz-adv-x="745" d="M92 239v408h152v-398q0 -48 11.5 -80t33 -47t42.5 -20t48 -5q53 0 87.5 36t34.5 116v398h152v-410q0 -127 -71.5 -192t-202.5 -65q-287 0 -287 259z" />
<glyph unicode="V" horiz-adv-x="676" d="M27 647h168l150 -464l141 464h163l-237 -647h-141z" />
<glyph unicode="W" horiz-adv-x="1011" d="M33 647h161l93 -466l137 439h192l105 -438l107 465h150l-163 -647h-191l-117 421l-144 -421h-191z" />
<glyph unicode="X" horiz-adv-x="659" d="M29 0l216 334l-190 313h175l104 -180l112 180h163l-197 -309l212 -338h-179l-119 212l-134 -212h-163z" />
<glyph unicode="Y" horiz-adv-x="648" d="M13 647h173l141 -226l142 226h166l-238 -356v-291h-152v287z" />
<glyph unicode="Z" horiz-adv-x="572" d="M42 122l324 407h-287v118h413l38 -122l-322 -407h314v-118h-442z" />
<glyph unicode="[" horiz-adv-x="321" d="M83 -127v803h191v-95h-79v-610h79v-98h-191z" />
<glyph unicode="\" horiz-adv-x="323" d="M-1 657h112l213 -668h-115z" />
<glyph unicode="]" horiz-adv-x="321" d="M61 -29h79v609h-79v95h191v-803h-191v99z" />
<glyph unicode="^" d="M30 269l181 378h139l185 -378h-123l-130 289l-132 -289h-120z" />
<glyph unicode="_" horiz-adv-x="500" d="M-1 -19h502v-104h-502v104z" />
<glyph unicode="`" horiz-adv-x="266" d="M19 647h132l96 -117h-90z" />
<glyph unicode="a" horiz-adv-x="543" d="M41 120q0 172 254 172h35v15q0 16 -1.5 26t-14 21.5t-36.5 11.5q-89 0 -173 -40l-47 112q98 33 229 33q82 0 131.5 -37t49.5 -109v-185q0 -21 9 -72.5t11 -67.5h-131l-18 42q-1 -1 -9 -7t-11 -8.5t-11 -8t-12.5 -8t-12.5 -7.5t-14 -7t-14 -5t-15.5 -4t-14.5 -1 q-184 0 -184 134zM183 126q0 -35 70 -35q33 0 78 50v53h-22q-126 0 -126 -68z" />
<glyph unicode="b" horiz-adv-x="551" d="M51 0q13 98 13 140v517h137v-256q53 70 117 70q97 0 144.5 -68t47.5 -172t-56 -174.5t-155 -70.5q-38 0 -64.5 18t-36.5 38l-20 -42h-127zM199 162q29 -71 76 -71q95 0 95 138q0 80 -22 108.5t-60 28.5q-17 0 -34 -15t-26 -29.5t-29 -48.5v-111z" />
<glyph unicode="c" horiz-adv-x="477" d="M41 225q0 114 62 180t179 66q29 0 80 -11t78 -22l-47 -112q-80 40 -112 40q-52 0 -76 -29t-24 -112q0 -134 99 -134q40 0 118 40l47 -112q-25 -12 -81 -22.5t-85 -10.5q-113 0 -175.5 65.5t-62.5 173.5z" />
<glyph unicode="d" horiz-adv-x="551" d="M41 231q0 103 48 171.5t142 68.5q66 0 119 -70v256h137v-517q0 -42 13 -140h-127l-20 42q-10 -20 -36.5 -38t-64.5 -18q-57 0 -99 19.5t-66 54.5t-35 77.5t-11 93.5zM181 229q0 -84 23 -111t72 -27q47 0 76 71v111q-39 64 -56 79q-17 14 -34 14q-38 0 -59.5 -28 t-21.5 -109z" />
<glyph unicode="e" horiz-adv-x="541" d="M41 224q0 34 6.5 66.5t22.5 66t41 58.5t65.5 40.5t91.5 15.5q128 0 179 -70t51 -231h-314q16 -83 99 -83q63 0 141 39l45 -104q-81 -36 -194 -36q-110 0 -172 68.5t-62 169.5zM185 271h176q-9 95 -92 95q-11 0 -21.5 -2.5t-26 -11t-25.5 -29.5t-11 -52z" />
<glyph unicode="f" horiz-adv-x="334" d="M9 352v105h69v11q0 89 55 132.5t165 64.5l48 -111q-68 -8 -99.5 -28t-31.5 -63v-6h84v-105h-84v-352h-137v352h-69z" />
<glyph unicode="g" horiz-adv-x="569" d="M38 -72q0 25 13 44t23 25t27 14q-54 25 -54 89q0 45 57 83q-43 55 -43 113q0 19 4 39t18 45.5t36.5 44.5t64 32.5t96.5 13.5q21 0 77 -8q132 11 187 13l-33 -89h-52q42 -50 42 -93q0 -31 -10 -59.5t-32.5 -56t-68 -44t-108.5 -16.5q-65 0 -102 15q-18 -2 -18 -27 q0 -18 25.5 -25t110.5 -13q140 -10 187.5 -40t47.5 -97q0 -37 -21.5 -64.5t-58 -42t-77.5 -21.5t-88 -7q-136 0 -193 34.5t-57 97.5zM177 -67q0 -18 36.5 -29t74.5 -11q64 0 85 7.5t21 30.5q0 36 -204 37q-13 -15 -13 -35zM198 294q0 -73 85 -73q42 0 61.5 24t19.5 53 q0 71 -82 71q-15 0 -26 -1.5t-26 -8t-23.5 -23t-8.5 -42.5z" />
<glyph unicode="h" horiz-adv-x="545" d="M64 0v657h137v-256q1 1 10 12t18 19t22 18t30 16t35 6q98 0 133.5 -47.5t35.5 -139.5v-285h-137v304q0 14 -1.5 22.5t-6 19.5t-17 16.5t-31.5 5.5q-18 0 -36 -15t-28 -30.5t-27 -45.5v-277h-137z" />
<glyph unicode="i" horiz-adv-x="266" d="M62 539v108h142v-108h-142zM65 0v457h136v-457h-136z" />
<glyph unicode="j" horiz-adv-x="264" d="M-32 -103q52 11 72.5 33t20.5 67v460h137v-451q0 -47 -14.5 -84t-42 -62.5t-57 -42t-68.5 -31.5zM57 539v108h145v-108h-145z" />
<glyph unicode="k" horiz-adv-x="510" d="M64 0v657h137v-376l128 176h147l-146 -198l170 -259h-156l-143 224v-224h-137z" />
<glyph unicode="l" horiz-adv-x="265" d="M64 0v657h137v-657h-137z" />
<glyph unicode="m" horiz-adv-x="830" d="M51 457h127l19 -57q15 22 50 47t69 25q59 0 86 -12t62 -53q40 65 140 65q82 0 122 -44t40 -136v-292h-137v290q0 47 -12 62.5t-35 15.5q-66 0 -101 -96v-272h-137v290q0 51 -11 64.5t-44 13.5q-6 0 -12.5 -2t-12 -5t-11.5 -8.5t-10 -10t-9.5 -11.5t-8.5 -11.5t-7.5 -12.5 t-6.5 -11t-6 -10t-4 -8v-278h-137v352q0 22 -6 58t-7 47z" />
<glyph unicode="n" horiz-adv-x="549" d="M51 457h127l20 -56q2 2 13.5 14t20 19.5t22.5 17.5t30 15t33 5q97 0 132.5 -47.5t35.5 -136.5v-288h-137v297q0 16 -1 25t-6 21.5t-17 18.5t-32 6q-27 0 -48 -24t-43 -67v-277h-137v360q0 19 -13 97z" />
<glyph unicode="o" horiz-adv-x="557" d="M41 231q0 104 59 172.5t179 68.5q122 0 179.5 -66.5t57.5 -174.5q0 -107 -58.5 -176.5t-178.5 -69.5q-121 0 -179.5 69t-58.5 177zM181 231q0 -142 98 -142q97 0 97 142q0 80 -23 108.5t-74 28.5q-49 0 -73.5 -29t-24.5 -108z" />
<glyph unicode="p" horiz-adv-x="551" d="M51 457h127l22 -56q15 20 25 31t34.5 25.5t50.5 14.5q102 0 151 -69t49 -177q0 -103 -49 -172t-143 -69q-29 0 -63.5 15t-53.5 41v-221h-137v495q0 38 -13 142zM198 164q18 -36 43 -55.5t48 -19.5q37 0 59 29t22 110q0 85 -23.5 112.5t-72.5 27.5q-11 0 -21 -6.5 t-21.5 -24.5t-15.5 -25.5t-18 -33.5v-114z" />
<glyph unicode="q" horiz-adv-x="551" d="M41 226q0 106 51 176t149 70q26 0 50.5 -14.5t34.5 -25.5t25 -31l22 56h127q-13 -104 -13 -142v-495h-137v221q-19 -26 -54 -41t-64 -15q-70 0 -114 35t-60.5 86.5t-16.5 119.5zM181 228q0 -81 22 -110t59 -29q23 0 47.5 19.5t42.5 55.5v114l-7 14t-7.5 14.5t-7.5 13 t-8 13.5t-7.5 11.5t-8.5 10t-8.5 7t-9.5 5t-10 1.5q-51 0 -74 -27t-23 -113z" />
<glyph unicode="r" horiz-adv-x="402" d="M51 457h127l20 -63q46 78 100 78q49 0 89 -12l-46 -111q-22 19 -57 19q-7 0 -14 -2t-12.5 -5t-11.5 -9t-10 -10.5t-8.5 -12.5t-7 -12.5t-6.5 -13.5t-5 -12t-5 -11l-3 -9v-271h-137v355q0 20 -2.5 39.5t-6 38t-4.5 24.5z" />
<glyph unicode="s" horiz-adv-x="469" d="M36 18l47 112q13 -4 42.5 -17t51 -18.5t44.5 -5.5q31 0 47 6t19 12t3 15v3q0 13 -25 21.5t-60.5 18t-71 25.5t-60.5 52.5t-25 90.5q0 139 204 139q71 0 164 -28l-46 -111q-31 14 -43.5 19.5t-33 10.5t-40.5 5q-65 0 -65 -32q0 -18 25 -29.5t60.5 -22t71 -26t60.5 -49 t25 -83.5q0 -141 -211 -141q-80 0 -183 33z" />
<glyph unicode="t" horiz-adv-x="318" d="M11 352v106h69v125h136v-125h88v-106h-88v-251q0 -43 20.5 -63.5t74.5 -36.5l-51 -111q-83 32 -131.5 83t-48.5 142v237h-69z" />
<glyph unicode="u" horiz-adv-x="542" d="M64 169v288h137v-297q0 -21 2 -33.5t14.5 -25t36.5 -12.5q15 0 27 6.5t24 23.5t17.5 27t18.5 34v277h137v-360q0 -19 13 -97h-127l-20 56q-1 -1 -17 -18t-26 -25.5t-30.5 -18t-41.5 -9.5q-92 0 -128.5 48t-36.5 136z" />
<glyph unicode="v" horiz-adv-x="561" d="M34 457h146l104 -300l99 300h144l-178 -457h-138z" />
<glyph unicode="w" horiz-adv-x="840" d="M26 457h145l95 -291l98 253h136l94 -254l78 292h142l-149 -457h-145l-91 259l-103 -259h-145z" />
<glyph unicode="x" horiz-adv-x="516" d="M22 0l165 231l-154 226h151l78 -127l82 127h142l-157 -219l165 -238h-151l-86 135l-92 -135h-143z" />
<glyph unicode="y" horiz-adv-x="552" d="M34 457h146l94 -284l100 284h144l-201 -530q-54 -144 -191 -190l-47 111q71 19 88 65l40 106z" />
<glyph unicode="z" horiz-adv-x="461" d="M21 112l263 240h-227v105h337l46 -112l-259 -240h241v-105h-354z" />
<glyph unicode="{" horiz-adv-x="406" d="M48 214v103q31 1 47.5 19t22 46.5t8.5 63t12 69t27 63.5t58 48t100 21v-103q-34 0 -50 -23t-20 -58.5t-8.5 -73t-23.5 -73t-57 -52.5q38 -14 57.5 -48t23.5 -72.5t7.5 -74.5t20 -60t50.5 -24v-103q-60 2 -99.5 20.5t-57 47t-26 63t-12 69t-9 63.5t-23 48t-48.5 21z" />
<glyph unicode="|" horiz-adv-x="283" d="M84 -166v868h115v-868h-115z" />
<glyph unicode="}" horiz-adv-x="406" d="M84 -15q34 0 50 24t19.5 60t7.5 74.5t23.5 72.5t57.5 48q-38 17 -57 52.5t-23 73t-8 73t-20 58.5t-50 23v103q60 -2 100 -21t58 -48t26.5 -63.5t11.5 -69t8.5 -63t22 -46.5t47.5 -19v-103q-36 -3 -54 -28t-20.5 -61t-10.5 -78t-21.5 -78t-56 -60.5t-111.5 -26.5v103z" />
<glyph unicode="~" d="M31 215q0 55 38 95t108 40q37 0 73 -14.5t57 -32t37 -32t19 -14.5q37 0 52 14t15 62l106 -57q0 -55 -37.5 -95t-110.5 -40q-32 0 -65.5 15t-54.5 32.5t-39.5 32.5t-25.5 15q-36 0 -51.5 -15.5t-15.5 -63.5z" />
<glyph unicode="&#xa1;" horiz-adv-x="283" d="M71 524v123h140v-123h-140zM74 0v459h135v-459h-135z" />
<glyph unicode="&#xa2;" horiz-adv-x="477" d="M41 225q0 98 46.5 161.5t135.5 79.5v95h108v-95q72 -13 109 -28l-47 -112q-51 26 -62 30v-256q28 11 67 31l47 -112q-32 -16 -114 -28v-91h-108v91q-88 16 -135 78.5t-47 155.5zM181 225q0 -82 42 -122v253q-42 -30 -42 -131z" />
<glyph unicode="&#xa3;" d="M42 283v103h77l1 23q0 117 81.5 186t239.5 79l39 -124q-45 0 -71.5 -2t-56.5 -11t-46 -26t-26.5 -48.5t-10.5 -76.5h142v-103h-140v-163h274v-120h-488v120h62v163h-77z" />
<glyph unicode="&#xa5;" d="M-3 647h169l120 -232l123 232h160l-185 -310h88v-102h-116v-41h116v-101h-116v-93h-152v93h-117v101h117v41h-117v102h88z" />
<glyph unicode="&#xa6;" horiz-adv-x="283" d="M85 -78v234h113v-234h-113zM85 359v234h113v-234h-113z" />
<glyph unicode="&#xa7;" horiz-adv-x="448" d="M23 334q0 71 50 102q-34 36 -34 86q0 139 206 139q62 0 155 -28l-47 -110q-8 3 -24.5 11t-26 12t-25.5 7.5t-31 3.5q-68 0 -68 -32q0 -18 25.5 -29.5t62 -22t72.5 -26.5t61.5 -50t25.5 -84q0 -64 -40 -101q19 -36 19 -87q0 -141 -208 -141q-66 0 -167 33l47 111 q9 -4 27 -13t29 -13.5t29 -9t37 -4.5q29 0 45 5.5t19 11t3 13.5v6q0 14 -18 23.5t-45 15.5t-58 17.5t-58 27.5t-45 48.5t-18 77.5zM159 334q0 -6 3.5 -11.5t11 -10.5t15 -8.5t20 -8t22 -7.5t25 -8t24.5 -8q9 9 9 26v14q0 36 -106 67q-24 -12 -24 -45z" />
<glyph unicode="&#xa8;" horiz-adv-x="266" d="M-8 544v103h120v-103h-120zM155 544v103h120v-103h-120z" />
<glyph unicode="&#xa9;" horiz-adv-x="720" d="M25 324q0 141 97 237.5t238 96.5q143 0 239 -96t96 -238q0 -141 -97 -237.5t-238 -96.5t-238 96.5t-97 237.5zM104 324q0 -107 74.5 -184t181.5 -77t181.5 77t74.5 184q0 108 -74 184.5t-182 76.5q-109 0 -182.5 -76t-73.5 -185zM182 322q0 203 184 203q62 0 105 -15 l-28 -75q-50 22 -77 22q-48 0 -70 -32t-22 -102q0 -73 21 -106t69 -33q10 0 18 1t18 4.5t14 5t17.5 7.5t16.5 7l27 -75q-50 -18 -110 -18q-183 0 -183 206z" />
<glyph unicode="&#xaa;" d="M148 457q0 96 152 96h20v11q0 8 -1 12.5t-8.5 9t-21.5 4.5q-51 0 -103 -23l-28 65q57 19 137 19q50 0 82 -20.5t32 -59.5v-103q0 -9 2 -21.5t5.5 -29t4.5 -26.5h-85l-4 10l-6 14q-42 -31 -68 -31q-110 0 -110 73zM234 461q0 -16 29 -16h11q25 0 48 23v28h-14 q-41 0 -57.5 -8t-16.5 -27z" />
<glyph unicode="&#xab;" horiz-adv-x="433" d="M18 270l93 182h124l-97 -180l96 -180h-123zM199 270l93 182h123l-97 -180l96 -180h-122z" />
<glyph unicode="&#xac;" d="M35 250v101h491v-273h-112v172h-379z" />
<glyph unicode="&#xad;" horiz-adv-x="362" d="M26 160v112h310v-112h-310z" />
<glyph unicode="&#xae;" horiz-adv-x="720" d="M25 324q0 141 97 237.5t238 96.5q143 0 239 -96t96 -238q0 -141 -97 -237.5t-238 -96.5t-238 96.5t-97 237.5zM104 324q0 -107 74.5 -184t181.5 -77t181.5 77t74.5 184q0 108 -74 184.5t-182 76.5q-109 0 -182.5 -76t-73.5 -185zM212 129v390h154q133 0 133 -118 q0 -93 -86 -113l114 -159h-109l-110 157h-6v-157h-90zM302 354h68q17 0 27.5 13t10.5 34t-10 34.5t-29 13.5h-67v-95z" />
<glyph unicode="&#xaf;" horiz-adv-x="266" d="M-3 533v95h272v-95h-272z" />
<glyph unicode="&#xb0;" horiz-adv-x="450" d="M43 438q0 76 53.5 127.5t128.5 51.5t128 -51.5t53 -127.5t-53 -126t-129 -50q-75 0 -128 50t-53 126zM126 438q0 -40 29.5 -69.5t68.5 -29.5t69 29.5t30 69.5q0 44 -27.5 72.5t-70.5 28.5t-71 -28.5t-28 -72.5z" />
<glyph unicode="&#xb1;" d="M50 -1v101h466v-101h-466zM60 234v101h167v99h112v-99h167v-101h-167v-114h-112v114h-167z" />
<glyph unicode="&#xb2;" horiz-adv-x="381" d="M45 392q6 3 28.5 16t36 20.5t35.5 21.5t35.5 24.5t28 23.5t21.5 24.5t7 22.5q0 21 -9.5 32t-19.5 13t-26 2q-37 0 -96 -28l-26 73q52 16 72 20t51 4q28 0 52.5 -5t48 -16.5t37.5 -35t14 -56.5q0 -23 -17.5 -48t-46.5 -46.5t-54 -37t-52 -29.5h170v-69h-266z" />
<glyph unicode="&#xb3;" horiz-adv-x="381" d="M49 324l25 73q8 -5 40.5 -12.5t58.5 -7.5q29 0 45.5 12.5t16.5 26.5q0 29 -28 37.5t-90 8.5v65q61 0 85 6.5t24 30.5q0 28 -50 28q-39 0 -95 -25l-25 74q18 8 57.5 14t65.5 6q68 0 105.5 -24.5t37.5 -71.5q0 -31 -24 -48.5t-60 -21.5q37 -5 65 -25t28 -55q0 -31 -15 -53 t-40.5 -32.5t-51 -15.5t-53.5 -5q-74 0 -122 15z" />
<glyph unicode="&#xb4;" horiz-adv-x="266" d="M19 530l96 117h132l-137 -117h-91z" />
<glyph unicode="&#xb6;" horiz-adv-x="540" d="M20 441q0 24 3.5 48t16 54t32.5 52t57 37t85 15h318v-835h-112v732h-100q-48 0 -78.5 -32.5t-30.5 -89.5q0 -44 31 -80.5t67 -46.5v-483h-113v420q-60 12 -101.5 47t-58 76t-16.5 86z" />
<glyph unicode="&#xb7;" horiz-adv-x="283" d="M80 204v123h123v-123h-123z" />
<glyph unicode="&#xb8;" horiz-adv-x="266" d="M-2 -223l28 91q64 -8 78 -8q48 0 48 39q0 22 -14.5 29.5t-65.5 7.5l21 79h105l-10 -38q33 0 51 -24.5t18 -51.5q0 -63 -46.5 -97.5t-101.5 -34.5q-53 0 -111 8z" />
<glyph unicode="&#xb9;" horiz-adv-x="381" d="M77 581l97 66h88v-334h-97v252l-60 -48z" />
<glyph unicode="&#xba;" d="M137 528q0 57 37.5 95t109.5 38q74 0 111 -37t37 -96q0 -58 -38 -97t-110 -39q-73 0 -110 39t-37 97zM224 528q0 -74 60 -74t60 74q0 42 -15.5 57t-44.5 15q-28 0 -44 -15t-16 -57z" />
<glyph unicode="&#xbb;" horiz-adv-x="433" d="M19 452h124l93 -182l-93 -178h-123l96 180zM200 452h123l93 -182l-93 -178h-122l96 180z" />
<glyph unicode="&#xbc;" horiz-adv-x="876" d="M64 581l96 66h88v-334h-96v252l-61 -48zM156 0l361 629h116l-362 -629h-115zM451 153l164 181h106v-181h55v-69h-55v-84h-95v84h-146zM531 153h95v101z" />
<glyph unicode="&#xbd;" horiz-adv-x="876" d="M58 581l97 66h88v-334h-97v252l-60 -48zM149 0l362 629h115l-363 -629h-114zM517 72q4 2 28.5 16t36 21t35 21.5t36.5 25t27.5 23.5t21.5 24.5t7 22.5q0 30 -15 39t-40 9q-38 0 -97 -28l-26 73q52 16 72 20t52 4q61 0 106.5 -26t45.5 -88q0 -74 -171 -161h171v-68h-266z " />
<glyph unicode="&#xbe;" horiz-adv-x="876" d="M50 324l26 73q8 -5 40 -12.5t58 -7.5q29 0 45.5 12.5t16.5 26.5q0 29 -28 37.5t-89 8.5v65q61 0 84.5 6.5t23.5 30.5q0 28 -49 28q-39 0 -95 -25l-26 74q18 8 57.5 14t65.5 6q68 0 106 -24.5t38 -71.5q0 -31 -24.5 -48.5t-60.5 -21.5q38 -5 66 -25t28 -55 q0 -40 -27.5 -65t-61 -33t-72.5 -8q-74 0 -122 15zM191 0l362 629h115l-363 -629h-114zM468 153l164 181h106v-181h55v-69h-55v-84h-95v84h-146zM548 153h95v101z" />
<glyph unicode="&#xbf;" horiz-adv-x="485" d="M51 164q0 33 17 60.5t41.5 47t49.5 37t42 38.5t17 44v74h133v-79q0 -38 -16 -67.5t-38.5 -48t-45 -34t-38.5 -33.5t-16 -39q0 -30 14 -43.5t54 -13.5q30 0 88 11t83 24l18 -122q-32 -11 -92 -20.5t-97 -9.5q-30 0 -53 2t-55.5 12t-53.5 27.5t-36.5 51.5t-15.5 81z M215 524v123h140v-123h-140z" />
<glyph unicode="&#xc0;" horiz-adv-x="705" d="M27 0l263 647h144l244 -647h-168l-52 163h-214l-54 -163h-163zM237 812h132l96 -117h-90zM286 278h133l-64 205z" />
<glyph unicode="&#xc1;" horiz-adv-x="705" d="M27 0l263 647h144l244 -647h-168l-52 163h-214l-54 -163h-163zM251 696l96 117h132l-137 -117h-91zM286 278h133l-64 205z" />
<glyph unicode="&#xc2;" horiz-adv-x="705" d="M27 0l263 647h144l244 -647h-168l-52 163h-214l-54 -163h-163zM213 692l104 120h88l100 -120h-95l-49 60l-52 -60h-96zM286 278h133l-64 205z" />
<glyph unicode="&#xc3;" horiz-adv-x="705" d="M27 0l263 647h144l244 -647h-168l-52 163h-214l-54 -163h-163zM190 710q20 45 48 62.5t75 17.5q25 0 55.5 -24.5t45.5 -24.5q20 0 34.5 15.5t19.5 31.5l68 -33q-13 -41 -46.5 -64.5t-73.5 -23.5q-34 0 -63 24t-41 24q-40 0 -53 -37zM286 278h133l-64 205z" />
<glyph unicode="&#xc4;" horiz-adv-x="705" d="M27 0l263 647h144l244 -647h-168l-52 163h-214l-54 -163h-163zM216 669v103h120v-103h-120zM286 278h133l-64 205zM379 669v103h120v-103h-120z" />
<glyph unicode="&#xc5;" horiz-adv-x="705" d="M27 0l263 647h144l244 -647h-168l-52 163h-214l-54 -163h-163zM286 278h133l-64 205zM287 753q0 34 24 58t59 24t59 -23.5t24 -58.5q0 -34 -24 -58t-59 -24q-34 0 -58.5 24t-24.5 58zM331 754q0 -14 11.5 -26.5t27.5 -12.5q18 0 28 11.5t10 27.5t-10.5 27.5t-27.5 11.5 t-28 -12t-11 -27z" />
<glyph unicode="&#xc6;" horiz-adv-x="1032" d="M27 0l367 647h524v-117h-331l19 -137h291v-117h-271l27 -159h274v-117h-403l-22 163h-214l-86 -163h-175zM350 278h135l-26 208z" />
<glyph unicode="&#xc7;" horiz-adv-x="591" d="M57 323q0 71 16 129.5t51 107t98 75.5t150 27q92 0 178 -28l-46 -127q-4 2 -17.5 8t-19 8t-17.5 6.5t-19.5 7t-18 5t-20.5 3.5t-20 1q-83 0 -120.5 -54t-37.5 -168q0 -121 35 -175t117 -54q20 0 40.5 4.5t32.5 9t37 15.5t35 15l46 -127q-94 -33 -188 -33v-2 q34 0 53.5 -25t19.5 -51q0 -62 -49 -97t-104 -35q-53 0 -111 8l28 93q72 -9 78 -9q48 0 48 38q0 22 -14.5 29.5t-65.5 7.5l14 53q-209 54 -209 334z" />
<glyph unicode="&#xc8;" horiz-adv-x="603" d="M92 0v647h397v-117h-245v-137h224v-117h-224v-159h254v-117h-406zM165 812h132l96 -117h-90z" />
<glyph unicode="&#xc9;" horiz-adv-x="603" d="M92 0v647h397v-117h-245v-137h224v-117h-224v-159h254v-117h-406zM140 677l96 117h132l-137 -117h-91z" />
<glyph unicode="&#xca;" horiz-adv-x="603" d="M92 0v647h397v-117h-245v-137h224v-117h-224v-159h254v-117h-406zM140 693l104 120h88l100 -120h-95l-49 60l-52 -60h-96z" />
<glyph unicode="&#xcb;" horiz-adv-x="603" d="M92 0v647h397v-117h-245v-137h224v-117h-224v-159h254v-117h-406zM163 669v103h120v-103h-120zM326 669v103h120v-103h-120z" />
<glyph unicode="&#xcc;" horiz-adv-x="312" d="M49 809h132l96 -117h-90zM80 0v647h152v-647h-152z" />
<glyph unicode="&#xcd;" horiz-adv-x="312" d="M48 692l96 117h132l-137 -117h-91zM79 0v647h152v-647h-152z" />
<glyph unicode="&#xce;" horiz-adv-x="312" d="M10 684l104 120h88l100 -120h-95l-49 60l-52 -60h-96zM80 0v647h152v-647h-152z" />
<glyph unicode="&#xcf;" horiz-adv-x="312" d="M15 722v103h120v-103h-120zM76 0v647h152v-647h-152zM178 722v103h120v-103h-120z" />
<glyph unicode="&#xd0;" horiz-adv-x="695" d="M29 309v104h63v234h237q157 0 233 -74t76 -247q0 -177 -74 -251.5t-235 -74.5h-237v309h-63zM244 117h94q26 0 44 3t38 15.5t32.5 34t20.5 61t8 94.5q0 43 -5.5 76t-13 54.5t-21.5 36.5t-24.5 22t-29 11t-29 4.5t-29.5 0.5h-85v-117h77v-104h-77v-192z" />
<glyph unicode="&#xd1;" horiz-adv-x="753" d="M92 0v647h228l191 -467v467h150v-647h-230l-193 467v-467h-146zM209 711q20 45 48 62.5t75 17.5q25 0 55.5 -24.5t45.5 -24.5q20 0 34.5 15.5t19.5 31.5l68 -33q-13 -41 -46.5 -64.5t-73.5 -23.5q-34 0 -63 24t-41 24q-40 0 -53 -37z" />
<glyph unicode="&#xd2;" horiz-adv-x="747" d="M57 321q0 74 17 133.5t53.5 107t99.5 73.5t149 26q314 0 314 -340q0 -156 -74.5 -248.5t-240.5 -92.5q-318 0 -318 341zM213 812h132l96 -117h-90zM214 321q0 -129 39 -176.5t122 -47.5q82 0 120 53t38 171q0 123 -39.5 173t-118.5 50q-81 0 -121 -50.5t-40 -172.5z" />
<glyph unicode="&#xd3;" horiz-adv-x="747" d="M57 321q0 74 17 133.5t53.5 107t99.5 73.5t149 26q314 0 314 -340q0 -156 -74.5 -248.5t-240.5 -92.5q-318 0 -318 341zM214 321q0 -129 39 -176.5t122 -47.5q82 0 120 53t38 171q0 123 -39.5 173t-118.5 50q-81 0 -121 -50.5t-40 -172.5zM256 696l96 117h132l-137 -117 h-91z" />
<glyph unicode="&#xd4;" horiz-adv-x="747" d="M57 321q0 74 17 133.5t53.5 107t99.5 73.5t149 26q314 0 314 -340q0 -156 -74.5 -248.5t-240.5 -92.5q-318 0 -318 341zM214 321q0 -129 39 -176.5t122 -47.5q82 0 120 53t38 171q0 123 -39.5 173t-118.5 50q-81 0 -121 -50.5t-40 -172.5zM224 693l104 120h88l100 -120 h-95l-49 60l-52 -60h-96z" />
<glyph unicode="&#xd5;" horiz-adv-x="747" d="M57 321q0 74 17 133.5t53.5 107t99.5 73.5t149 26q314 0 314 -340q0 -156 -74.5 -248.5t-240.5 -92.5q-318 0 -318 341zM210 711q20 45 48 62.5t75 17.5q25 0 55.5 -24.5t45.5 -24.5q20 0 34.5 15.5t19.5 31.5l68 -33q-13 -41 -46.5 -64.5t-73.5 -23.5q-34 0 -63 24 t-41 24q-40 0 -53 -37zM214 321q0 -129 39 -176.5t122 -47.5q82 0 120 53t38 171q0 123 -39.5 173t-118.5 50q-81 0 -121 -50.5t-40 -172.5z" />
<glyph unicode="&#xd6;" horiz-adv-x="747" d="M57 321q0 74 17 133.5t53.5 107t99.5 73.5t149 26q314 0 314 -340q0 -156 -74.5 -248.5t-240.5 -92.5q-318 0 -318 341zM214 321q0 -129 39 -176.5t122 -47.5q82 0 120 53t38 171q0 123 -39.5 173t-118.5 50q-81 0 -121 -50.5t-40 -172.5zM234 669v103h120v-103h-120z M397 669v103h120v-103h-120z" />
<glyph unicode="&#xd7;" d="M43 104l161 161l-161 161l80 80l161 -161l161 161l80 -80l-161 -161l161 -161l-80 -80l-161 161l-161 -161z" />
<glyph unicode="&#xd8;" horiz-adv-x="747" d="M16 -1l90 106q-49 81 -49 216q0 74 17 133.5t53.5 107t99.5 73.5t149 26q104 0 176 -36l72 84l98 -90l-76 -90q44 -79 44 -208q0 -156 -74.5 -248.5t-240.5 -92.5q-102 0 -173 31l-87 -102zM214 321q0 -49 3 -85l247 287q-35 21 -89 21q-81 0 -121 -50.5t-40 -172.5z M286 110q30 -13 89 -13q82 0 120 53t38 171q0 15 -0.5 40t-0.5 35z" />
<glyph unicode="&#xd9;" horiz-adv-x="745" d="M92 239v408h152v-398q0 -48 11.5 -80t33 -47t42.5 -20t48 -5q53 0 87.5 36t34.5 116v398h152v-410q0 -127 -71.5 -192t-202.5 -65q-287 0 -287 259zM210 812h132l96 -117h-90z" />
<glyph unicode="&#xda;" horiz-adv-x="745" d="M92 239v408h152v-398q0 -48 11.5 -80t33 -47t42.5 -20t48 -5q53 0 87.5 36t34.5 116v398h152v-410q0 -127 -71.5 -192t-202.5 -65q-287 0 -287 259zM288 676l96 117h132l-137 -117h-91z" />
<glyph unicode="&#xdb;" horiz-adv-x="745" d="M92 239v408h152v-398q0 -48 11.5 -80t33 -47t42.5 -20t48 -5q53 0 87.5 36t34.5 116v398h152v-410q0 -127 -71.5 -192t-202.5 -65q-287 0 -287 259zM229 693l104 120h88l100 -120h-95l-49 60l-52 -60h-96z" />
<glyph unicode="&#xdc;" horiz-adv-x="745" d="M92 239v408h152v-398q0 -48 11.5 -80t33 -47t42.5 -20t48 -5q53 0 87.5 36t34.5 116v398h152v-410q0 -127 -71.5 -192t-202.5 -65q-287 0 -287 259zM237 669v103h120v-103h-120zM400 669v103h120v-103h-120z" />
<glyph unicode="&#xdd;" horiz-adv-x="648" d="M13 647h173l141 -226l142 226h166l-238 -356v-291h-152v287zM156 692l96 117h132l-137 -117h-91z" />
<glyph unicode="&#xde;" horiz-adv-x="622" d="M92 0v647h152v-115h95q235 0 235 -199q0 -205 -224 -205h-106v-128h-152zM244 245h98q32 0 55 20.5t23 67.5q0 29 -7.5 47t-22.5 25t-25 8.5t-28 1.5h-93v-170z" />
<glyph unicode="&#xdf;" horiz-adv-x="558" d="M64 0v471q0 91 52 138.5t139 47.5q201 0 201 -164q0 -35 -9.5 -62.5t-26.5 -44.5t-31 -27t-32 -19l-22 -11q6 -3 31 -11.5t40 -14.5t38 -22.5t36.5 -36t24 -52.5t10.5 -74q0 -61 -28 -107.5t-74.5 -73t-100 -39.5t-110.5 -13l48 115q62 0 93 38.5t31 81.5q0 31 -7.5 54.5 t-17 37t-28 23.5t-30 13.5t-34 9t-29.5 7.5v107q1 0 10 6t11 7.5t11 8t12 9.5l10.5 10.5t11 13t8.5 14t7 16.5t4 18t2 21q0 25 -17 40.5t-43 15.5q-20 0 -37 -15t-17 -55v-482h-137z" />
<glyph unicode="&#xe0;" horiz-adv-x="543" d="M41 120q0 172 254 172h35v15q0 16 -1.5 26t-14 21.5t-36.5 11.5q-89 0 -173 -40l-47 112q98 33 229 33q82 0 131.5 -37t49.5 -109v-185q0 -21 9 -72.5t11 -67.5h-131l-18 42q-1 -1 -9 -7t-11 -8.5t-11 -8t-12.5 -8t-12.5 -7.5t-14 -7t-14 -5t-15.5 -4t-14.5 -1 q-184 0 -184 134zM113 647h132l96 -117h-90zM183 126q0 -35 70 -35q33 0 78 50v53h-22q-126 0 -126 -68z" />
<glyph unicode="&#xe1;" horiz-adv-x="543" d="M41 120q0 172 254 172h35v15q0 16 -1.5 26t-14 21.5t-36.5 11.5q-89 0 -173 -40l-47 112q98 33 229 33q82 0 131.5 -37t49.5 -109v-185q0 -21 9 -72.5t11 -67.5h-131l-18 42q-1 -1 -9 -7t-11 -8.5t-11 -8t-12.5 -8t-12.5 -7.5t-14 -7t-14 -5t-15.5 -4t-14.5 -1 q-184 0 -184 134zM149 530l96 117h132l-137 -117h-91zM183 126q0 -35 70 -35q33 0 78 50v53h-22q-126 0 -126 -68z" />
<glyph unicode="&#xe2;" horiz-adv-x="543" d="M41 120q0 172 254 172h35v15q0 16 -1.5 26t-14 21.5t-36.5 11.5q-89 0 -173 -40l-47 112q98 33 229 33q82 0 131.5 -37t49.5 -109v-185q0 -21 9 -72.5t11 -67.5h-131l-18 42q-1 -1 -9 -7t-11 -8.5t-11 -8t-12.5 -8t-12.5 -7.5t-14 -7t-14 -5t-15.5 -4t-14.5 -1 q-184 0 -184 134zM105 527l104 120h88l100 -120h-95l-49 60l-52 -60h-96zM183 126q0 -35 70 -35q33 0 78 50v53h-22q-126 0 -126 -68z" />
<glyph unicode="&#xe3;" horiz-adv-x="543" d="M41 120q0 172 254 172h35v15q0 16 -1.5 26t-14 21.5t-36.5 11.5q-89 0 -173 -40l-47 112q98 33 229 33q82 0 131.5 -37t49.5 -109v-185q0 -21 9 -72.5t11 -67.5h-131l-18 42q-1 -1 -9 -7t-11 -8.5t-11 -8t-12.5 -8t-12.5 -7.5t-14 -7t-14 -5t-15.5 -4t-14.5 -1 q-184 0 -184 134zM83 543q20 45 48 62.5t75 17.5q25 0 55.5 -24.5t45.5 -24.5q20 0 34.5 15.5t19.5 31.5l68 -33q-13 -41 -46.5 -64.5t-73.5 -23.5q-34 0 -63 24t-41 24q-40 0 -53 -37zM183 126q0 -35 70 -35q33 0 78 50v53h-22q-126 0 -126 -68z" />
<glyph unicode="&#xe4;" horiz-adv-x="543" d="M41 120q0 172 254 172h35v15q0 16 -1.5 26t-14 21.5t-36.5 11.5q-89 0 -173 -40l-47 112q98 33 229 33q82 0 131.5 -37t49.5 -109v-185q0 -21 9 -72.5t11 -67.5h-131l-18 42q-1 -1 -9 -7t-11 -8.5t-11 -8t-12.5 -8t-12.5 -7.5t-14 -7t-14 -5t-15.5 -4t-14.5 -1 q-184 0 -184 134zM123 521v109h121v-109h-121zM183 126q0 -35 70 -35q33 0 78 50v53h-22q-126 0 -126 -68zM287 521v109h121v-109h-121z" />
<glyph unicode="&#xe5;" horiz-adv-x="543" d="M41 120q0 172 254 172h35v15q0 16 -1.5 26t-14 21.5t-36.5 11.5q-89 0 -173 -40l-47 112q98 33 229 33q82 0 131.5 -37t49.5 -109v-185q0 -21 9 -72.5t11 -67.5h-131l-18 42q-1 -1 -9 -7t-11 -8.5t-11 -8t-12.5 -8t-12.5 -7.5t-14 -7t-14 -5t-15.5 -4t-14.5 -1 q-184 0 -184 134zM176 589q0 34 24 58t59 24t59 -23.5t24 -58.5q0 -34 -24 -58t-59 -24q-34 0 -58.5 24t-24.5 58zM183 126q0 -35 70 -35q33 0 78 50v53h-22q-126 0 -126 -68zM220 590q0 -14 11.5 -26.5t27.5 -12.5q18 0 28 11.5t10 27.5t-10.5 27.5t-27.5 11.5t-28 -12 t-11 -27z" />
<glyph unicode="&#xe6;" horiz-adv-x="823" d="M41 120q0 172 254 172h34v17q0 16 -2 26t-14 20.5t-35 10.5q-89 0 -173 -40l-47 112q93 33 229 33q69 0 132 -39q62 39 132 39q128 0 178.5 -70t50.5 -231h-313q16 -83 99 -83q63 0 141 39l45 -104q-81 -36 -194 -36q-62 0 -110 23.5t-63 55.5q-79 -79 -160 -79 q-184 0 -184 134zM183 126q0 -35 70 -35q6 0 11.5 1t11 3t10 4t9.5 6t8 6.5t8 7.5t6.5 7t6.5 7.5t6 6.5v54h-21q-126 0 -126 -68zM467 271h177q-9 95 -92 95q-11 0 -22 -2.5t-26.5 -11t-25.5 -29.5t-11 -52z" />
<glyph unicode="&#xe7;" horiz-adv-x="477" d="M41 225q0 115 60.5 181t180.5 66q29 0 81.5 -12t81.5 -24l-51 -109q-6 2 -33.5 15t-46 19t-33.5 6q-52 0 -76 -29.5t-24 -112.5q0 -135 99 -135q36 0 118 39l52 -108q-43 -22 -146 -34l-4 -12q34 0 51.5 -23.5t17.5 -50.5q0 -65 -46 -98.5t-101 -33.5q-53 0 -111 8l32 88 q72 -9 74 -9q20 0 35.5 11t15.5 32t-16 29t-67 8l15 59q-78 21 -118.5 82t-40.5 148z" />
<glyph unicode="&#xe8;" horiz-adv-x="541" d="M41 224q0 34 6.5 66.5t22.5 66t41 58.5t65.5 40.5t91.5 15.5q128 0 179 -70t51 -231h-314q16 -83 99 -83q63 0 141 39l45 -104q-81 -36 -194 -36q-110 0 -172 68.5t-62 169.5zM123 647h132l96 -117h-90zM185 271h176q-9 95 -92 95q-11 0 -21.5 -2.5t-26 -11t-25.5 -29.5 t-11 -52z" />
<glyph unicode="&#xe9;" horiz-adv-x="541" d="M41 224q0 34 6.5 66.5t22.5 66t41 58.5t65.5 40.5t91.5 15.5q128 0 179 -70t51 -231h-314q16 -83 99 -83q63 0 141 39l45 -104q-81 -36 -194 -36q-110 0 -172 68.5t-62 169.5zM185 271h176q-9 95 -92 95q-11 0 -21.5 -2.5t-26 -11t-25.5 -29.5t-11 -52zM193 530l96 117 h132l-137 -117h-91z" />
<glyph unicode="&#xea;" horiz-adv-x="541" d="M41 224q0 34 6.5 66.5t22.5 66t41 58.5t65.5 40.5t91.5 15.5q128 0 179 -70t51 -231h-314q16 -83 99 -83q63 0 141 39l45 -104q-81 -36 -194 -36q-110 0 -172 68.5t-62 169.5zM137 527l104 120h88l100 -120h-95l-49 60l-52 -60h-96zM185 271h176q-9 95 -92 95 q-11 0 -21.5 -2.5t-26 -11t-25.5 -29.5t-11 -52z" />
<glyph unicode="&#xeb;" horiz-adv-x="541" d="M41 224q0 34 6.5 66.5t22.5 66t41 58.5t65.5 40.5t91.5 15.5q128 0 179 -70t51 -231h-314q16 -83 99 -83q63 0 141 39l45 -104q-81 -36 -194 -36q-110 0 -172 68.5t-62 169.5zM140 524v103h120v-103h-120zM185 271h176q-9 95 -92 95q-11 0 -21.5 -2.5t-26 -11 t-25.5 -29.5t-11 -52zM303 524v103h120v-103h-120z" />
<glyph unicode="&#xec;" horiz-adv-x="266" d="M21 647h132l96 -117h-90zM85 0v457h136v-457h-136z" />
<glyph unicode="&#xed;" horiz-adv-x="266" d="M17 530l96 117h132l-137 -117h-91zM65 0v457h136v-457h-136z" />
<glyph unicode="&#xee;" horiz-adv-x="266" d="M-13 527l104 120h88l100 -120h-95l-49 60l-52 -60h-96zM65 0v457h136v-457h-136z" />
<glyph unicode="&#xef;" horiz-adv-x="266" d="M-8 551v103h120v-103h-120zM65 0v457h136v-457h-136zM155 551v103h120v-103h-120z" />
<glyph unicode="&#xf0;" d="M47 180q0 228 215 228q13 0 31.5 -3.5t45 -18.5t39.5 -39q0 62 -26.5 105t-72.5 62l-74 -49l-92 54l46 31h-7q-29 0 -61 -6l-42 121h26q124 0 209 -28l55 40l89 -54l-49 -34q142 -89 142 -306q0 -301 -244 -301q-92 0 -161 54.5t-69 143.5zM197 207q0 -6 0.5 -15.5 t0.5 -11.5q0 -45 22.5 -65t55.5 -20q45 0 69 27t24 111q-12 30 -33 46t-61 16q-78 0 -78 -88z" />
<glyph unicode="&#xf1;" horiz-adv-x="549" d="M51 457h127l20 -56q2 2 13.5 14t20 19.5t22.5 17.5t30 15t33 5q97 0 132.5 -47.5t35.5 -136.5v-288h-137v297q0 16 -1 25t-6 21.5t-17 18.5t-32 6q-27 0 -48 -24t-43 -67v-277h-137v360q0 19 -13 97zM92 543q20 45 48 62.5t75 17.5q25 0 55.5 -24.5t45.5 -24.5 q20 0 34.5 15.5t19.5 31.5l68 -33q-13 -41 -46.5 -64.5t-73.5 -23.5q-34 0 -63 24t-41 24q-40 0 -53 -37z" />
<glyph unicode="&#xf2;" horiz-adv-x="557" d="M41 231q0 104 59 172.5t179 68.5q122 0 179.5 -66.5t57.5 -174.5q0 -107 -58.5 -176.5t-178.5 -69.5q-121 0 -179.5 69t-58.5 177zM145 647h132l96 -117h-90zM181 231q0 -142 98 -142q97 0 97 142q0 80 -23 108.5t-74 28.5q-49 0 -73.5 -29t-24.5 -108z" />
<glyph unicode="&#xf3;" horiz-adv-x="557" d="M41 231q0 104 59 172.5t179 68.5q122 0 179.5 -66.5t57.5 -174.5q0 -107 -58.5 -176.5t-178.5 -69.5q-121 0 -179.5 69t-58.5 177zM181 231q0 -142 98 -142q97 0 97 142q0 80 -23 108.5t-74 28.5q-49 0 -73.5 -29t-24.5 -108zM185 530l96 117h132l-137 -117h-91z" />
<glyph unicode="&#xf4;" horiz-adv-x="557" d="M41 231q0 104 59 172.5t179 68.5q122 0 179.5 -66.5t57.5 -174.5q0 -107 -58.5 -176.5t-178.5 -69.5q-121 0 -179.5 69t-58.5 177zM133 527l104 120h88l100 -120h-95l-49 60l-52 -60h-96zM181 231q0 -142 98 -142q97 0 97 142q0 80 -23 108.5t-74 28.5q-49 0 -73.5 -29 t-24.5 -108z" />
<glyph unicode="&#xf5;" horiz-adv-x="557" d="M41 231q0 104 59 172.5t179 68.5q122 0 179.5 -66.5t57.5 -174.5q0 -107 -58.5 -176.5t-178.5 -69.5q-121 0 -179.5 69t-58.5 177zM100 543q20 45 48 62.5t75 17.5q25 0 55.5 -24.5t45.5 -24.5q20 0 34.5 15.5t19.5 31.5l68 -33q-13 -41 -46.5 -64.5t-73.5 -23.5 q-34 0 -63 24t-41 24q-40 0 -53 -37zM181 231q0 -142 98 -142q97 0 97 142q0 80 -23 108.5t-74 28.5q-49 0 -73.5 -29t-24.5 -108z" />
<glyph unicode="&#xf6;" horiz-adv-x="557" d="M41 231q0 104 59 172.5t179 68.5q122 0 179.5 -66.5t57.5 -174.5q0 -107 -58.5 -176.5t-178.5 -69.5q-121 0 -179.5 69t-58.5 177zM143 524v103h120v-103h-120zM181 231q0 -142 98 -142q97 0 97 142q0 80 -23 108.5t-74 28.5q-49 0 -73.5 -29t-24.5 -108zM306 524v103 h120v-103h-120z" />
<glyph unicode="&#xf7;" d="M50 177v87h466v-87h-466zM212 4v124h141v-124h-141zM212 308v124h141v-124h-141z" />
<glyph unicode="&#xf8;" horiz-adv-x="557" d="M17 42l51 58q-27 55 -27 131q0 104 59 172.5t179 68.5q70 0 115 -15l47 50l89 -87l-45 -50q31 -55 31 -139q0 -107 -58.5 -176.5t-178.5 -69.5q-70 0 -124 24l-48 -54zM178 218l139 153q-4 0 -12.5 -1t-14.5 -1.5t-11 -0.5q-49 0 -73.5 -29t-24.5 -108q0 -5 -3 -13z M235 96q20 -7 44 -7q97 0 97 142q0 14 1 21z" />
<glyph unicode="&#xf9;" horiz-adv-x="542" d="M64 169v288h137v-297q0 -21 2 -33.5t14.5 -25t36.5 -12.5q15 0 27 6.5t24 23.5t17.5 27t18.5 34v277h137v-360q0 -19 13 -97h-127l-20 56q-1 -1 -17 -18t-26 -25.5t-30.5 -18t-41.5 -9.5q-92 0 -128.5 48t-36.5 136zM126 647h132l96 -117h-90z" />
<glyph unicode="&#xfa;" horiz-adv-x="542" d="M64 169v288h137v-297q0 -21 2 -33.5t14.5 -25t36.5 -12.5q15 0 27 6.5t24 23.5t17.5 27t18.5 34v277h137v-360q0 -19 13 -97h-127l-20 56q-1 -1 -17 -18t-26 -25.5t-30.5 -18t-41.5 -9.5q-92 0 -128.5 48t-36.5 136zM174 530l96 117h132l-137 -117h-91z" />
<glyph unicode="&#xfb;" horiz-adv-x="542" d="M64 169v288h137v-297q0 -21 2 -33.5t14.5 -25t36.5 -12.5q15 0 27 6.5t24 23.5t17.5 27t18.5 34v277h137v-360q0 -19 13 -97h-127l-20 56q-1 -1 -17 -18t-26 -25.5t-30.5 -18t-41.5 -9.5q-92 0 -128.5 48t-36.5 136zM119 527l104 120h88l100 -120h-95l-49 60l-52 -60h-96 z" />
<glyph unicode="&#xfc;" horiz-adv-x="542" d="M64 169v288h137v-297q0 -21 2 -33.5t14.5 -25t36.5 -12.5q15 0 27 6.5t24 23.5t17.5 27t18.5 34v277h137v-360q0 -19 13 -97h-127l-20 56q-1 -1 -17 -18t-26 -25.5t-30.5 -18t-41.5 -9.5q-92 0 -128.5 48t-36.5 136zM129 524v103h120v-103h-120zM292 524v103h120v-103 h-120z" />
<glyph unicode="&#xfd;" horiz-adv-x="552" d="M34 457h146l94 -284l100 284h144l-201 -530q-54 -144 -191 -190l-47 111q71 19 88 65l40 106zM155 530l96 117h132l-137 -117h-91z" />
<glyph unicode="&#xfe;" horiz-adv-x="551" d="M48 -181q5 37 10.5 155t5.5 166v517h137v-256q53 70 117 70q97 0 144.5 -68t47.5 -172t-56 -174.5t-155 -70.5q-38 0 -64.5 18t-36.5 38l-23 -223h-127zM199 162q29 -71 76 -71q95 0 95 138q0 80 -22 108.5t-60 28.5q-17 0 -34 -15t-26 -29.5t-29 -48.5v-111z" />
<glyph unicode="&#xff;" d="M34 457h146l94 -284l100 284h144l-201 -530q-54 -144 -191 -190l-47 111q71 19 88 65l40 106zM149 521v103h120v-103h-120zM312 521v103h120v-103h-120z" />
<glyph unicode="&#x152;" horiz-adv-x="1054" d="M57 321q0 74 17 133.5t53.5 107t99.5 73.5t149 26q63 0 113 -14h451v-117h-296q27 -76 34 -137h241v-117h-240q-5 -81 -34 -159h304v-117h-442q-55 -20 -132 -20q-318 0 -318 341zM214 321q0 -129 39 -176.5t122 -47.5q82 0 115 51.5t33 172.5q0 126 -34.5 174.5 t-113.5 48.5q-81 0 -121 -50.5t-40 -172.5z" />
<glyph unicode="&#x153;" horiz-adv-x="870" d="M41 231q0 104 59 172.5t179 68.5q102 0 167 -47q60 46 151 46q128 0 179 -70t51 -231h-314q16 -83 99 -83q63 0 141 39l45 -104q-81 -36 -194 -36q-93 0 -158 50q-66 -51 -167 -51q-121 0 -179.5 69t-58.5 177zM181 231q0 -142 98 -142q97 0 97 142q0 80 -23 108.5 t-74 28.5q-49 0 -73.5 -29t-24.5 -108zM514 271h176q-9 95 -92 95q-11 0 -21.5 -2.5t-26 -11t-25.5 -29.5t-11 -52z" />
<glyph unicode="&#x178;" horiz-adv-x="648" d="M13 647h173l141 -226l142 226h166l-238 -356v-291h-152v287zM194 710v105h118v-105h-118zM354 710v105h119v-105h-119z" />
<glyph unicode="&#x2c6;" horiz-adv-x="266" d="M-13 527l104 120h88l100 -120h-95l-49 60l-52 -60h-96z" />
<glyph unicode="&#x2dc;" horiz-adv-x="266" d="M-40 543q20 45 48 62.5t75 17.5q25 0 55.5 -24.5t45.5 -24.5q20 0 34.5 15.5t19.5 31.5l68 -33q-13 -41 -46.5 -64.5t-73.5 -23.5q-34 0 -63 24t-41 24q-40 0 -53 -37z" />
<glyph unicode="&#x2000;" horiz-adv-x="417" />
<glyph unicode="&#x2001;" horiz-adv-x="835" />
<glyph unicode="&#x2002;" horiz-adv-x="417" />
<glyph unicode="&#x2003;" horiz-adv-x="835" />
<glyph unicode="&#x2004;" horiz-adv-x="278" />
<glyph unicode="&#x2005;" horiz-adv-x="208" />
<glyph unicode="&#x2006;" horiz-adv-x="139" />
<glyph unicode="&#x2007;" horiz-adv-x="139" />
<glyph unicode="&#x2008;" horiz-adv-x="104" />
<glyph unicode="&#x2009;" horiz-adv-x="167" />
<glyph unicode="&#x200a;" horiz-adv-x="46" />
<glyph unicode="&#x2010;" horiz-adv-x="362" d="M26 160v112h310v-112h-310z" />
<glyph unicode="&#x2011;" horiz-adv-x="362" d="M26 160v112h310v-112h-310z" />
<glyph unicode="&#x2012;" horiz-adv-x="362" d="M26 160v112h310v-112h-310z" />
<glyph unicode="&#x2013;" horiz-adv-x="500" d="M-1 187v100h502v-100h-502z" />
<glyph unicode="&#x2014;" horiz-adv-x="1000" d="M-1 177v110h1002v-110h-1002z" />
<glyph unicode="&#x2018;" horiz-adv-x="283" d="M45 460l99 188h89l-85 -188h-103z" />
<glyph unicode="&#x2019;" horiz-adv-x="283" d="M43 460l86 188h103l-99 -188h-90z" />
<glyph unicode="&#x201a;" horiz-adv-x="283" d="M43 -88l86 188h103l-99 -188h-90z" />
<glyph unicode="&#x201c;" horiz-adv-x="433" d="M40 460l99 188h89l-85 -188h-103zM205 460l98 188h90l-85 -188h-103z" />
<glyph unicode="&#x201d;" horiz-adv-x="433" d="M40 460l85 188h103l-98 -188h-90zM206 460l85 188h102l-99 -188h-88z" />
<glyph unicode="&#x201e;" horiz-adv-x="433" d="M40 -88l85 188h103l-98 -188h-90zM206 -88l85 188h102l-99 -188h-88z" />
<glyph unicode="&#x2022;" d="M132 324q0 64 44 107.5t107 43.5t107 -44t44 -107t-44 -107.5t-107 -44.5q-64 0 -107.5 44t-43.5 108z" />
<glyph unicode="&#x2026;" horiz-adv-x="850" d="M71 0v124h141v-124h-141zM354 0v124h141v-124h-141zM637 0v124h142v-124h-142z" />
<glyph unicode="&#x202f;" horiz-adv-x="167" />
<glyph unicode="&#x2039;" horiz-adv-x="283" d="M42 270l93 182h124l-97 -180l96 -180h-123z" />
<glyph unicode="&#x203a;" horiz-adv-x="283" d="M39 452h124l93 -182l-93 -178h-123l96 180z" />
<glyph unicode="&#x205f;" horiz-adv-x="208" />
<glyph unicode="&#x20ac;" horiz-adv-x="540" d="M-31 196l38 117h65v29h-103l38 117h79q52 202 294 202q97 0 177 -26l-40 -122q-76 31 -137 31q-109 0 -137 -85h254l-38 -117h-230v-29h220l-38 -117h-171q13 -53 44.5 -76t89.5 -23q16 0 32 2.5t35 8.5t30 10.5t33.5 14t30.5 12.5v-141q-63 -24 -158 -24 q-249 0 -294 216h-114z" />
<glyph unicode="&#x2122;" horiz-adv-x="937" d="M61 584v63h297v-63h-104v-293h-89v293h-104zM402 291v356h151l85 -247l86 247h146v-356h-89v268l-97 -268h-99l-97 268v-268h-86z" />
<glyph unicode="&#xe000;" horiz-adv-x="455" d="M0 0v455h455v-455h-455z" />
<glyph unicode="&#xfb01;" horiz-adv-x="586" d="M9 352v105h69v11q0 89 55 132.5t165 64.5l48 -111q-68 -8 -99.5 -28t-31.5 -63v-6h84v-105h-84v-352h-137v352h-69zM381 539v108h143v-108h-143zM384 0v457h137v-457h-137z" />
<glyph unicode="&#xfb02;" horiz-adv-x="586" d="M9 352v105h69v11q0 89 55 132.5t165 64.5l48 -111q-68 -8 -99.5 -28t-31.5 -63v-6h84v-105h-84v-352h-137v352h-69zM388 0v657h137v-657h-137z" />
</font>
</defs>
</svg>
